  0
SECTION
  2
HEADER
  9
$ACADVER
  1
AC1015
  9
$ACADMAINTVER
 70
     6
  9
$DWGCODEPAGE
  3
ANSI_1252
  9
$INSBASE
 10
0.0
 20
0.0
 30
0.0
  9
$EXTMIN
 10
-2.5375
 20
-3.181709
 30
0.0
  9
$EXTMAX
 10
15.92
 20
7.620973
 30
0.0
  9
$LIMMIN
 10
-3.094022
 20
-3.181709
  9
$LIMMAX
 10
14.569
 20
9.245195
  9
$ORTHOMODE
 70
     0
  9
$REGENMODE
 70
     1
  9
$FILLMODE
 70
     1
  9
$QTEXTMODE
 70
     0
  9
$MIRRTEXT
 70
     1
  9
$LTSCALE
 40
1.0
  9
$ATTMODE
 70
     1
  9
$TEXTSIZE
 40
1.0
  9
$TRACEWID
 40
0.05
  9
$TEXTSTYLE
  7
STANDARD
  9
$CLAYER
  8
0
  9
$CELTYPE
  6
Continuous
  9
$CECOLOR
 62
     0
  9
$CELTSCALE
 40
1.0
  9
$DISPSILH
 70
     0
  9
$DIMSCALE
 40
1.0
  9
$DIMASZ
 40
0.18
  9
$DIMEXO
 40
0.0625
  9
$DIMDLI
 40
0.38
  9
$DIMRND
 40
0.0
  9
$DIMDLE
 40
0.0
  9
$DIMEXE
 40
0.18
  9
$DIMTP
 40
0.0
  9
$DIMTM
 40
0.0
  9
$DIMTXT
 40
0.18
  9
$DIMCEN
 40
0.09
  9
$DIMTSZ
 40
0.0
  9
$DIMTOL
 70
     0
  9
$DIMLIM
 70
     0
  9
$DIMTIH
 70
     1
  9
$DIMTOH
 70
     1
  9
$DIMSE1
 70
     0
  9
$DIMSE2
 70
     0
  9
$DIMTAD
 70
     0
  9
$DIMZIN
 70
     0
  9
$DIMBLK
  1

  9
$DIMASO
 70
     0
  9
$DIMSHO
 70
     1
  9
$DIMPOST
  1

  9
$DIMAPOST
  1

  9
$DIMALT
 70
     0
  9
$DIMALTD
 70
     2
  9
$DIMALTF
 40
1.0
  9
$DIMLFAC
 40
1.0
  9
$DIMTOFL
 70
     0
  9
$DIMTVP
 40
0.0
  9
$DIMTIX
 70
     0
  9
$DIMSOXD
 70
     0
  9
$DIMSAH
 70
     0
  9
$DIMBLK1
  1

  9
$DIMBLK2
  1

  9
$DIMSTYLE
  2
STANDARD
  9
$DIMCLRD
 70
     0
  9
$DIMCLRE
 70
     0
  9
$DIMCLRT
 70
     0
  9
$DIMTFAC
 40
1.0
  9
$DIMGAP
 40
0.09
  9
$DIMJUST
 70
     0
  9
$DIMSD1
 70
     0
  9
$DIMSD2
 70
     0
  9
$DIMTOLJ
 70
     1
  9
$DIMTZIN
 70
     0
  9
$DIMALTZ
 70
     0
  9
$DIMALTTZ
 70
     0
  9
$DIMUPT
 70
     0
  9
$DIMDEC
 70
     4
  9
$DIMTDEC
 70
     4
  9
$DIMALTU
 70
     2
  9
$DIMALTTD
 70
     2
  9
$DIMTXSTY
  7
STANDARD
  9
$DIMAUNIT
 70
     0
  9
$DIMADEC
 70
     0
  9
$DIMALTRND
 40
0.0
  9
$DIMAZIN
 70
     0
  9
$DIMDSEP
 70
     0
  9
$DIMATFIT
 70
     0
  9
$DIMFRAC
 70
     0
  9
$DIMLDRBLK
  1

  9
$DIMLUNIT
 70
     2
  9
$DIMLWD
 70
     0
  9
$DIMLWE
 70
     0
  9
$DIMTMOVE
 70
     0
  9
$LUNITS
 70
     2
  9
$LUPREC
 70
     2
  9
$SKETCHINC
 40
0.1
  9
$FILLETRAD
 40
0.0
  9
$AUNITS
 70
     0
  9
$AUPREC
 70
     0
  9
$MENU
  1
acad
  9
$ELEVATION
 40
0.0
  9
$PELEVATION
 40
0.0
  9
$THICKNESS
 40
0.0
  9
$LIMCHECK
 70
     0
  9
$CHAMFERA
 40
0.0
  9
$CHAMFERB
 40
0.0
  9
$CHAMFERC
 40
0.0
  9
$CHAMFERD
 40
0.0
  9
$SKPOLY
 70
     0
  9
$TDCREATE
 40
0.000000000
  9
$TDUCREATE
 40
0.000000000
  9
$TDUPDATE
 40
0.000000000
  9
$TDUUPDATE
 40
0.000000000
  9
$TDINDWG
 40
0.0000000000
  9
$TDUSRTIMER
 40
0.0000000000
  9
$USRTIMER
 70
     1
  9
$ANGBASE
 50
0.0
  9
$ANGDIR
 70
     0
  9
$PDMODE
 70
     2
  9
$PDSIZE
 40
0.0
  9
$PLINEWID
 40
0.0
  9
$SPLFRAME
 70
     0
  9
$SPLINETYPE
 70
     6
  9
$SPLINESEGS
 70
     8
  9
$HANDSEED
  5
244
  9
$SURFTAB1
 70
     6
  9
$SURFTAB2
 70
     6
  9
$SURFTYPE
 70
     6
  9
$SURFU
 70
     6
  9
$SURFV
 70
     6
  9
$UCSBASE
  2

  9
$UCSNAME
  2

  9
$UCSORG
 10
0.0
 20
0.0
 30
0.0
  9
$UCSXDIR
 10
1.0
 20
0.0
 30
0.0
  9
$UCSYDIR
 10
0.0
 20
1.0
 30
0.0
  9
$UCSORTHOREF
  2

  9
$UCSORTHOVIEW
 70
     0
  9
$UCSORGTOP
 10
0.0
 20
0.0
 30
0.0
  9
$UCSORGBOTTOM
 10
0.0
 20
0.0
 30
0.0
  9
$UCSORGLEFT
 10
0.0
 20
0.0
 30
0.0
  9
$UCSORGRIGHT
 10
0.0
 20
0.0
 30
0.0
  9
$UCSORGFRONT
 10
0.0
 20
0.0
 30
0.0
  9
$UCSORGBACK
 10
0.0
 20
0.0
 30
0.0
  9
$PUCSBASE
  2

  9
$PUCSNAME
  2

  9
$PUCSORG
 10
0.0
 20
0.0
 30
0.0
  9
$PUCSXDIR
 10
1.0
 20
0.0
 30
0.0
  9
$PUCSYDIR
 10
0.0
 20
1.0
 30
0.0
  9
$PUCSORTHOREF
  2

  9
$PUCSORTHOVIEW
 70
     0
  9
$PUCSORGTOP
 10
0.0
 20
0.0
 30
0.0
  9
$PUCSORGBOTTOM
 10
0.0
 20
0.0
 30
0.0
  9
$PUCSORGLEFT
 10
0.0
 20
0.0
 30
0.0
  9
$PUCSORGRIGHT
 10
0.0
 20
0.0
 30
0.0
  9
$PUCSORGFRONT
 10
0.0
 20
0.0
 30
0.0
  9
$PUCSORGBACK
 10
0.0
 20
0.0
 30
0.0
  9
$USERI1
 70
     0
  9
$USERI2
 70
     0
  9
$USERI3
 70
     0
  9
$USERI4
 70
     0
  9
$USERI5
 70
     0
  9
$USERR1
 40
0.0
  9
$USERR2
 40
0.0
  9
$USERR3
 40
0.0
  9
$USERR4
 40
0.0
  9
$USERR5
 40
0.0
  9
$WORLDVIEW
 70
     1
  9
$SHADEDGE
 70
     3
  9
$SHADEDIF
 70
    70
  9
$TILEMODE
 70
     1
  9
$MAXACTVP
 70
    16
  9
$PINSBASE
 10
0.0
 20
0.0
 30
0.0
  9
$PLIMCHECK
 70
     0
  9
$PEXTMIN
 10
0.0
 20
0.0
 30
0.0
  9
$PEXTMAX
 10
0.0
 20
0.0
 30
0.0
  9
$PLIMMIN
 10
0.0
 20
0.0
  9
$PLIMMAX
 10
0.0
 20
0.0
  9
$UNITMODE
 70
     0
  9
$VISRETAIN
 70
     0
  9
$PLINEGEN
 70
     1
  9
$PSLTSCALE
 70
     0
  9
$TREEDEPTH
 70
  3020
  9
$CMLSTYLE
  2
STANDARD
  9
$CMLJUST
 70
     0
  9
$CMLSCALE
 40
1.0
  9
$PROXYGRAPHICS
 70
     0
  9
$MEASUREMENT
 70
     0
  9
$CELWEIGHT
370
     0
  9
$ENDCAPS
280
     0
  9
$JOINSTYLE
280
     0
  9
$LWDISPLAY
290
     0
  9
$INSUNITS
 70
     0
  9
$HYPERLINKBASE
  1

  9
$XEDIT
290
     1
  9
$CEPSNTYPE
380
     0
  9
$PSTYLEMODE
290
     1
  9
$FINGERPRINTGUID
  2

  9
$VERSIONGUID
  2

  9
$EXTNAMES
290
     1
  9
$PSVPSCALE
 40
0.0
  0
ENDSEC
  0
SECTION
  2
CLASSES
  0
CLASS
  1
LWPOLYLINE
  2
AcDbPolyline
  3
AutoCAD 2000
 90
    32768
280
     0
281
     1
  0
CLASS
  1
IMAGE
  2
AcDbRasterImage
  3
ISM
 90
    32895
280
     0
281
     1
  0
CLASS
  1
OLE2FRAME
  2
AcDbOle2Frame
  3
AutoCAD 2000
 90
    32768
280
     0
281
     1
  0
CLASS
  1
HATCH
  2
AcDbHatch
  3
AutoCAD 2000
 90
        0
280
     0
281
     1
  0
CLASS
  1
DICTIONARYVAR
  2
AcDbDictionaryVar
  3
AutoCAD 2000
 90
    32768
280
     0
281
     0
  0
CLASS
  1
RASTERVARIABLES
  2
AcDbRasterVariables
  3
ISM
 90
    32768
280
     0
281
     0
  0
CLASS
  1
IMAGEDEF
  2
AcDbRasterImageDef
  3
ISM
 90
    32768
280
     0
281
     0
  0
CLASS
  1
IMAGEDEF_REACTOR
  2
AcDbRasterImageDefReactor
  3
ISM
 90
    32769
280
     0
281
     0
  0
CLASS
  1
IDBUFFER
  2
AcDbIdBuffer
  3
AutoCAD 2000
 90
    32768
280
     0
281
     0
  0
CLASS
  1
SPATIAL_FILTER
  2
AcDbSpatialFilter
  3
AutoCAD 2000
 90
    32768
280
     0
281
     0
  0
CLASS
  1
XRECORD
  2
AcDbXrecord
  3
AutoCAD 2000
 90
    32768
280
     0
281
     0
  0
CLASS
  1
SORTENTSTABLE
  2
AcDbSortentsTable
  3
AutoCAD 2000
 90
    32768
280
     0
281
     0
  0
CLASS
  1
LAYER_INDEX
  2
AcDbLayerIndex
  3
AutoCAD 2000
 90
    32768
280
     0
281
     0
  0
CLASS
  1
SPATIAL_INDEX
  2
AcDbSpatialIndex
  3
AutoCAD 2000
 90
    32768
280
     0
281
     0
  0
CLASS
  1
OBJECT_PTR
  2
CAseDLPNTableRecord
  3
"ASE-LPNTableRecord"
 90
    32769
280
     0
281
     0
  0
CLASS
  1
LAYOUT
  2
AcDbLayout
  3
AutoCAD 2000
 90
        0
280
     0
281
     0
  0
CLASS
  1
PLOTSETTINGS
  2
AcDbPlotSettings
  3
AutoCAD 2000
 90
    32768
280
     0
281
     0
  0
CLASS
  1
ACDBDICTIONARYWDFLT
  2
AcDbDictionaryWithDefault
  3
AutoCAD 2000
 90
        0
280
     0
281
     0
  0
CLASS
  1
ACDBPLACEHOLDER
  2
AcDbPlaceHolder
  3
AutoCAD 2000
 90
        0
280
     0
281
     0
  0
CLASS
  1
VBA_PROJECT
  2
AcDbVbaProject
  3
acadvba
 90
    32768
280
     0
281
     0
  0
CLASS
  1
WIPEOUT
  2
AcDbWipeout
  3
WipeOut|AutoCAD Express Tool|expresstools@autodesk.com
 90
    32895
280
     0
281
     1
  0
CLASS
  1
WIPEOUTVARIABLES
  2
AcDbWipeoutVariables
  3
WipeOut|AutoCAD Express Tool|expresstools@autodesk.com
 90
        0
280
     0
281
     0
  0
CLASS
  1
RTEXT
  2
RText
  3
RText|AutoCAD Express Tool|expresstools@autodesk.com
 90
    32768
280
     0
281
     1
  0
CLASS
  1
ARCALIGNEDTEXT
  2
AcDbArcAlignedText
  3
ATEXT|AutoCAD Express Tool|expresstools@autodesk.com
 90
    32768
280
     0
281
     1
  0
ENDSEC
  0
SECTION
  2
TABLES
  0
TABLE
  2
VPORT
  5
7
100
AcDbSymbolTable
 70
     1
  0
VPORT
  5
15
100
AcDbSymbolTableRecord
100
AcDbViewportTableRecord
  2
*ACTIVE
 70
     0
 10
0.0
 20
0.0
 11
1.0
 21
1.0
 12
0.0
 22
0.0
 13
0.0
 23
0.0
 14
0.0
 24
0.0
 15
0.0
 25
0.0
 16
0.0
 26
0.0
 36
1.0
 17
6.69125
 27
2.219631
 37
2.0
 40
16.215803
 41
1.161006
 42
50.0
 43
0.0
 44
0.0
 50
0.0
 51
0.0
 71
     0
 72
   100
 73
     1
 74
     1
 75
     0
 76
     0
 77
     0
 78
     0
281
     0
 65
     0
110
0.0
120
0.0
130
0.0
111
1.0
121
0.0
131
0.0
112
0.0
122
1.0
132
0.0
345
0
346
0
 79
     0
146
0.0
  0
ENDTAB
  0
TABLE
  2
LTYPE
  5
4
100
AcDbSymbolTable
 70
    14
  0
LTYPE
  5
11
100
AcDbSymbolTableRecord
100
AcDbLinetypeTableRecord
  2
ByBlock
 70
    64
  3

 72
    65
 73
     0
 40
0.0
  0
LTYPE
  5
12
100
AcDbSymbolTableRecord
100
AcDbLinetypeTableRecord
  2
ByLayer
 70
    64
  3

 72
    65
 73
     0
 40
0.0
  0
LTYPE
  5
13
100
AcDbSymbolTableRecord
100
AcDbLinetypeTableRecord
  2
Continuous
 70
    64
  3
Solid line
 72
    65
 73
     0
 40
0.0
  0
LTYPE
  5
25
100
AcDbSymbolTableRecord
100
AcDbLinetypeTableRecord
  2
BORDER
 70
     0
  3
BORDER
 72
    65
 73
     6
 40
1.75
 49
0.5
 74
     0
 49
-0.25
 74
     0
 49
0.5
 74
     0
 49
-0.25
 74
     0
 49
0.0
 74
     0
 49
-0.25
 74
     0
  0
LTYPE
  5
26
100
AcDbSymbolTableRecord
100
AcDbLinetypeTableRecord
  2
CENTER
 70
     0
  3
CENTER
 72
    65
 73
     4
 40
0.95
 49
0.625
 74
     0
 49
-0.125
 74
     0
 49
0.075
 74
     0
 49
-0.125
 74
     0
  0
LTYPE
  5
27
100
AcDbSymbolTableRecord
100
AcDbLinetypeTableRecord
  2
DASHDOT
 70
     0
  3
DASHDOT
 72
    65
 73
     4
 40
1.0
 49
0.5
 74
     0
 49
-0.25
 74
     0
 49
0.0
 74
     0
 49
-0.25
 74
     0
  0
LTYPE
  5
28
100
AcDbSymbolTableRecord
100
AcDbLinetypeTableRecord
  2
DASHED
 70
     0
  3
DASHED
 72
    65
 73
     2
 40
0.2
 49
0.1
 74
     0
 49
-0.1
 74
     0
  0
LTYPE
  5
29
100
AcDbSymbolTableRecord
100
AcDbLinetypeTableRecord
  2
DIVIDE
 70
     0
  3
DIVIDE
 72
    65
 73
     6
 40
1.25
 49
0.5
 74
     0
 49
-0.25
 74
     0
 49
0.0
 74
     0
 49
-0.25
 74
     0
 49
0.0
 74
     0
 49
-0.25
 74
     0
  0
LTYPE
  5
2A
100
AcDbSymbolTableRecord
100
AcDbLinetypeTableRecord
  2
DOT
 70
     0
  3
DOT
 72
    65
 73
     2
 40
0.25
 49
0.0
 74
     0
 49
-0.25
 74
     0
  0
LTYPE
  5
2B
100
AcDbSymbolTableRecord
100
AcDbLinetypeTableRecord
  2
HIDDEN
 70
     0
  3
HIDDEN
 72
    65
 73
     2
 40
0.375
 49
0.25
 74
     0
 49
-0.125
 74
     0
  0
LTYPE
  5
2C
100
AcDbSymbolTableRecord
100
AcDbLinetypeTableRecord
  2
PHANTOM
 70
     0
  3
PHANTOM
 72
    65
 73
     6
 40
1.15
 49
0.625
 74
     0
 49
-0.125
 74
     0
 49
0.075
 74
     0
 49
-0.125
 74
     0
 49
0.075
 74
     0
 49
-0.125
 74
     0
  0
LTYPE
  5
2D
100
AcDbSymbolTableRecord
100
AcDbLinetypeTableRecord
  2
$INVISIBLE
 70
     0
  3
$INVISIBLE
 72
    65
 73
     2
 40
200.0
 49
-100.0
 74
     0
 49
-100.0
 74
     0
  0
LTYPE
  5
2E
100
AcDbSymbolTableRecord
100
AcDbLinetypeTableRecord
  2
$SNAPEXT
 70
     0
  3
$SNAPEXT
 72
    65
 73
     2
 40
0.04
 49
0.02
 74
     0
 49
-0.02
 74
     0
  0
LTYPE
  5
2F
100
AcDbSymbolTableRecord
100
AcDbLinetypeTableRecord
  2
$AUXILIARY
 70
     0
  3
$AUXILIARY
 72
    65
 73
     2
 40
0.1
 49
0.05
 74
     0
 49
-0.05
 74
     0
  0
ENDTAB
  0
TABLE
  2
LAYER
  5
2
100
AcDbSymbolTable
 70
     3
  0
LAYER
  5
14
100
AcDbSymbolTableRecord
100
AcDbLayerTableRecord
  2
0
 70
     0
 62
     7
  6
Continuous
290
     1
370
    -3
390
1F
1001
TCAD
1000
TCW_LAYER_ORDER
1002
{
1071
        0
1002
}
  0
LAYER
  5
30
100
AcDbSymbolTableRecord
100
AcDbLayerTableRecord
  2
1
 70
     0
 62
     7
  6
Continuous
290
     1
370
    -3
390
1F
1001
TCAD
1000
TCW_LAYER_ORDER
1002
{
1071
        0
1002
}
  0
LAYER
  5
31
100
AcDbSymbolTableRecord
100
AcDbLayerTableRecord
  2
DEFPOINTS
 70
     0
 62
    -7
  6
Continuous
290
     0
370
    -3
390
1F
1001
TCAD
1000
TCW_LAYER_ORDER
1002
{
1071
        0
1002
}
  0
ENDTAB
  0
TABLE
  2
STYLE
  5
3
100
AcDbSymbolTable
 70
     1
  0
STYLE
  5
17
100
AcDbSymbolTableRecord
100
AcDbTextStyleTableRecord
  2
STANDARD
 70
     0
 40
0.0
 41
1.0
 50
0.0
 71
     0
 42
0.0
  3
TXT.SHX
  4

  0
ENDTAB
  0
TABLE
  2
VIEW
  5
5
100
AcDbSymbolTable
 70
     1
  0
VIEW
  5
32
100
AcDbSymbolTableRecord
100
AcDbViewTableRecord
  2
View_0
 70
     0
 40
8.267716
 10
5.846457
 20
4.133858
 41
11.692913
 11
0.0
 21
0.0
 31
1.0
 12
0.0
 22
0.0
 32
0.0
 42
50.0
 43
0.0
 44
0.0
 50
0.0
 71
     0
281
     0
 72
     0
110
0.0
120
0.0
130
0.0
111
1.0
121
0.0
131
0.0
112
0.0
122
1.0
132
0.0
  0
ENDTAB
  0
TABLE
  2
UCS
  5
6
100
AcDbSymbolTable
 70
     1
  0
UCS
  5
3C
100
AcDbSymbolTableRecord
100
AcDbUCSTableRecord
  2
CK_VIEW_1
 70
     0
 10
0.0
 20
0.0
 30
1.0
 11
1.0
 21
0.0
 31
0.0
 12
0.0
 22
1.0
 32
0.0
 79
     0
146
0.0
 71
     1
 13
0.0
 23
0.0
 33
0.0
  0
ENDTAB
  0
TABLE
  2
APPID
  5
8
100
AcDbSymbolTable
 70
     2
  0
APPID
  5
16
100
AcDbSymbolTableRecord
100
AcDbRegAppTableRecord
  2
ACAD
 70
     0
  0
APPID
  5
24
100
AcDbSymbolTableRecord
100
AcDbRegAppTableRecord
  2
TCAD
 70
     0
  0
ENDTAB
  0
TABLE
  2
DIMSTYLE
  5
9
100
AcDbSymbolTable
 70
    10
100
AcDbDimStyleTable
 71
     0
  0
DIMSTYLE
105
18
100
AcDbSymbolTableRecord
100
AcDbDimStyleTableRecord
  2
STANDARD
 70
     0
  3

  4

 40
1.0
 41
0.18
 42
0.0625
 43
0.38
 44
0.18
 45
0.0
 46
0.0
 47
0.0
 48
0.0
 71
     0
 72
     0
 73
     1
 74
     1
 75
     0
 76
     0
 77
     0
 78
     0
 79
     0
140
0.18
141
0.09
142
0.0
143
1.0
144
1.0
145
0.0
146
1.0
147
0.09
148
0.0
170
     0
171
     2
172
     0
173
     0
174
     0
175
     0
176
     0
177
     0
178
     0
179
     0
271
     4
272
     4
273
     2
274
     2
275
     0
276
     0
277
     2
278
    46
279
     0
280
     0
281
     0
282
     0
283
     1
284
     0
285
     0
286
     0
288
     0
340
17
341
0
342
0
343
0
344
0
371
    -2
372
    -2
  0
DIMSTYLE
105
33
100
AcDbSymbolTableRecord
100
AcDbDimStyleTableRecord
  2
DIMSTYLE1
 70
     0
  3

  4

 40
1.0
 41
0.25
 42
0.0625
 43
0.38
 44
0.25
 45
0.0
 46
0.0
 47
0.0
 48
0.0
 71
     0
 72
     0
 73
     1
 74
     1
 75
     0
 76
     0
 77
     0
 78
     0
 79
     0
140
0.25
141
0.09
142
0.0
143
25.4
144
1.0
145
0.0
146
1.0
147
0.09
148
0.0
170
     0
171
     2
172
     0
173
     0
174
     0
175
     0
176
     0
177
     0
178
     0
179
     0
271
     4
272
     4
273
     2
274
     2
275
     0
276
     0
277
     2
278
    46
279
     0
280
     0
281
     0
282
     0
283
     1
284
     0
285
     0
286
     0
288
     0
340
17
341
0
342
0
343
0
344
0
371
    -2
372
    -2
  0
DIMSTYLE
105
34
100
AcDbSymbolTableRecord
100
AcDbDimStyleTableRecord
  2
DIMSTYLE2
 70
     0
  3

  4

 40
1.0
 41
0.25
 42
0.0625
 43
0.38
 44
0.25
 45
0.0
 46
0.0
 47
0.0
 48
0.0
 71
     0
 72
     0
 73
     1
 74
     1
 75
     0
 76
     0
 77
     0
 78
     0
 79
     0
140
0.25
141
0.09
142
0.0
143
25.4
144
1.0
145
0.0
146
1.0
147
0.09
148
0.0
170
     0
171
     2
172
     0
173
     0
174
     0
175
     0
176
     0
177
     0
178
     0
179
     0
271
     4
272
     4
273
     2
274
     2
275
     0
276
     0
277
     2
278
    46
279
     0
280
     0
281
     0
282
     0
283
     1
284
     0
285
     0
286
     0
288
     0
340
17
341
0
342
0
343
0
344
0
371
    -2
372
    -2
  0
DIMSTYLE
105
35
100
AcDbSymbolTableRecord
100
AcDbDimStyleTableRecord
  2
DIMSTYLE3
 70
     0
  3

  4

 40
1.0
 41
0.25
 42
0.0625
 43
0.38
 44
0.25
 45
0.0
 46
0.0
 47
0.0
 48
0.0
 71
     0
 72
     0
 73
     1
 74
     1
 75
     0
 76
     0
 77
     0
 78
     0
 79
     0
140
0.25
141
0.09
142
0.0
143
25.4
144
1.0
145
0.0
146
1.0
147
0.09
148
0.0
170
     0
171
     2
172
     0
173
     0
174
     0
175
     0
176
     0
177
     0
178
     0
179
     0
271
     4
272
     4
273
     2
274
     2
275
     0
276
     0
277
     2
278
    46
279
     0
280
     0
281
     0
282
     0
283
     1
284
     0
285
     0
286
     0
288
     0
340
17
341
0
342
0
343
0
344
0
371
    -2
372
    -2
  0
DIMSTYLE
105
36
100
AcDbSymbolTableRecord
100
AcDbDimStyleTableRecord
  2
DIMSTYLE4
 70
     0
  3

  4

 40
1.0
 41
0.25
 42
0.0625
 43
0.38
 44
0.25
 45
0.0
 46
0.0
 47
0.0
 48
0.0
 71
     0
 72
     0
 73
     1
 74
     1
 75
     0
 76
     0
 77
     0
 78
     0
 79
     0
140
0.25
141
0.09
142
0.0
143
25.4
144
1.0
145
0.0
146
1.0
147
0.09
148
0.0
170
     0
171
     2
172
     0
173
     0
174
     0
175
     0
176
     0
177
     0
178
     0
179
     0
271
     4
272
     4
273
     2
274
     2
275
     0
276
     0
277
     2
278
    46
279
     0
280
     0
281
     0
282
     0
283
     1
284
     0
285
     0
286
     0
288
     0
340
17
341
0
342
0
343
0
344
0
371
    -2
372
    -2
  0
DIMSTYLE
105
37
100
AcDbSymbolTableRecord
100
AcDbDimStyleTableRecord
  2
DIMSTYLE5
 70
     0
  3

  4

 40
1.0
 41
0.25
 42
0.0625
 43
0.38
 44
0.25
 45
0.0
 46
0.0
 47
0.0
 48
0.0
 71
     0
 72
     0
 73
     1
 74
     1
 75
     0
 76
     0
 77
     0
 78
     0
 79
     0
140
0.25
141
0.09
142
0.0
143
25.4
144
1.0
145
0.0
146
1.0
147
0.09
148
0.0
170
     0
171
     2
172
     0
173
     0
174
     0
175
     0
176
     0
177
     0
178
     0
179
     0
271
     4
272
     4
273
     2
274
     2
275
     0
276
     0
277
     2
278
    46
279
     0
280
     0
281
     0
282
     0
283
     1
284
     0
285
     0
286
     0
288
     0
340
17
341
0
342
0
343
0
344
0
371
    -2
372
    -2
  0
DIMSTYLE
105
38
100
AcDbSymbolTableRecord
100
AcDbDimStyleTableRecord
  2
DIMSTYLE6
 70
     0
  3

  4

 40
1.0
 41
0.25
 42
0.0625
 43
0.38
 44
0.25
 45
0.0
 46
0.0
 47
0.0
 48
0.0
 71
     0
 72
     0
 73
     1
 74
     1
 75
     0
 76
     0
 77
     0
 78
     0
 79
     0
140
0.25
141
0.09
142
0.0
143
25.4
144
1.0
145
0.0
146
1.0
147
0.09
148
0.0
170
     0
171
     2
172
     0
173
     0
174
     0
175
     0
176
     0
177
     0
178
     0
179
     0
271
     4
272
     4
273
     2
274
     2
275
     0
276
     0
277
     2
278
    46
279
     0
280
     0
281
     0
282
     0
283
     1
284
     0
285
     0
286
     0
288
     0
340
17
341
0
342
0
343
0
344
0
371
    -2
372
    -2
  0
DIMSTYLE
105
39
100
AcDbSymbolTableRecord
100
AcDbDimStyleTableRecord
  2
DIMSTYLE7
 70
     0
  3

  4

 40
1.0
 41
0.25
 42
0.0625
 43
0.38
 44
0.25
 45
0.0
 46
0.0
 47
0.0
 48
0.0
 71
     0
 72
     0
 73
     1
 74
     1
 75
     0
 76
     0
 77
     0
 78
     0
 79
     0
140
0.25
141
0.09
142
0.0
143
25.4
144
1.0
145
0.0
146
1.0
147
0.09
148
0.0
170
     0
171
     2
172
     0
173
     0
174
     0
175
     0
176
     0
177
     0
178
     0
179
     0
271
     4
272
     4
273
     2
274
     2
275
     0
276
     0
277
     2
278
    46
279
     0
280
     0
281
     0
282
     0
283
     1
284
     0
285
     0
286
     0
288
     0
340
17
341
0
342
0
343
0
344
0
371
    -2
372
    -2
  0
DIMSTYLE
105
3A
100
AcDbSymbolTableRecord
100
AcDbDimStyleTableRecord
  2
DIMSTYLE8
 70
     0
  3

  4

 40
1.0
 41
0.25
 42
0.0625
 43
0.38
 44
0.25
 45
0.0
 46
0.0
 47
0.0
 48
0.0
 71
     0
 72
     0
 73
     1
 74
     1
 75
     0
 76
     0
 77
     0
 78
     0
 79
     0
140
0.25
141
0.09
142
0.0
143
25.4
144
1.0
145
0.0
146
1.0
147
0.09
148
0.0
170
     0
171
     2
172
     0
173
     0
174
     0
175
     0
176
     0
177
     0
178
     0
179
     0
271
     4
272
     4
273
     2
274
     2
275
     0
276
     0
277
     2
278
    46
279
     0
280
     0
281
     0
282
     0
283
     1
284
     0
285
     0
286
     0
288
     0
340
17
341
0
342
0
343
0
344
0
371
    -2
372
    -2
  0
DIMSTYLE
105
3B
100
AcDbSymbolTableRecord
100
AcDbDimStyleTableRecord
  2
DIMSTYLE9
 70
     0
  3

  4

 40
1.0
 41
0.25
 42
0.0625
 43
0.38
 44
0.25
 45
0.0
 46
0.0
 47
0.0
 48
0.0
 71
     0
 72
     0
 73
     1
 74
     1
 75
     0
 76
     0
 77
     0
 78
     0
 79
     0
140
0.25
141
0.09
142
0.0
143
25.4
144
1.0
145
0.0
146
1.0
147
0.09
148
0.0
170
     0
171
     2
172
     0
173
     0
174
     0
175
     0
176
     0
177
     0
178
     0
179
     0
271
     4
272
     4
273
     2
274
     2
275
     0
276
     0
277
     2
278
    46
279
     0
280
     0
281
     0
282
     0
283
     1
284
     0
285
     0
286
     0
288
     0
340
17
341
0
342
0
343
0
344
0
371
    -2
372
    -2
  0
ENDTAB
  0
TABLE
  2
BLOCK_RECORD
  5
1
100
AcDbSymbolTable
 70
    10
  0
BLOCK_RECORD
  5
A
100
AcDbSymbolTableRecord
100
AcDbBlockTableRecord
  2
*MODEL_SPACE
340
242
  0
BLOCK_RECORD
  5
B
100
AcDbSymbolTableRecord
100
AcDbBlockTableRecord
  2
*PAPER_SPACE
340
243
  0
BLOCK_RECORD
  5
3D
100
AcDbSymbolTableRecord
100
AcDbBlockTableRecord
  2
*D0
340
0
  0
BLOCK_RECORD
  5
61
100
AcDbSymbolTableRecord
100
AcDbBlockTableRecord
  2
*D1
340
0
  0
BLOCK_RECORD
  5
86
100
AcDbSymbolTableRecord
100
AcDbBlockTableRecord
  2
*D2
340
0
  0
BLOCK_RECORD
  5
A6
100
AcDbSymbolTableRecord
100
AcDbBlockTableRecord
  2
*D3
340
0
  0
BLOCK_RECORD
  5
CA
100
AcDbSymbolTableRecord
100
AcDbBlockTableRecord
  2
*D4
340
0
  0
BLOCK_RECORD
  5
121
100
AcDbSymbolTableRecord
100
AcDbBlockTableRecord
  2
*D5
340
0
  0
BLOCK_RECORD
  5
143
100
AcDbSymbolTableRecord
100
AcDbBlockTableRecord
  2
*D6
340
0
  0
BLOCK_RECORD
  5
1E0
100
AcDbSymbolTableRecord
100
AcDbBlockTableRecord
  2
*D7
340
0
  0
BLOCK_RECORD
  5
201
100
AcDbSymbolTableRecord
100
AcDbBlockTableRecord
  2
*D8
340
0
  0
BLOCK_RECORD
  5
222
100
AcDbSymbolTableRecord
100
AcDbBlockTableRecord
  2
*D9
340
0
  0
ENDTAB
  0
ENDSEC
  0
SECTION
  2
BLOCKS
  0
BLOCK
  5
D
100
AcDbEntity
  8
0
100
AcDbBlockBegin
  2
*MODEL_SPACE
 70
     0
 10
0.0
 20
0.0
 30
0.0
  3
*MODEL_SPACE
  1

  0
ENDBLK
  5
E
100
AcDbEntity
  8
0
100
AcDbBlockEnd
  0
BLOCK
  5
F
100
AcDbEntity
 67
     1
  8
0
100
AcDbBlockBegin
  2
*PAPER_SPACE
 70
     0
 10
0.0
 20
0.0
 30
0.0
  3
*PAPER_SPACE
  1

  0
ENDBLK
  5
10
100
AcDbEntity
 67
     1
  8
0
100
AcDbBlockEnd
  0
BLOCK
  5
3E
100
AcDbEntity
  8
0
100
AcDbBlockBegin
  2
*D0
 70
     1
 10
0.0
 20
0.0
 30
0.0
  3
*D0
  1

  0
LINE
  5
3F
100
AcDbEntity
  8
1
  6
Continuous
 62
     0
100
AcDbLine
 10
11.25
 20
1.5625
 30
0.0
 11
11.25
 21
2.228252
 31
0.0
  0
LINE
  5
40
100
AcDbEntity
  8
1
  6
Continuous
 62
     0
100
AcDbLine
 10
11.75
 20
1.5625
 30
0.0
 11
11.75
 21
2.228252
 31
0.0
  0
POLYLINE
  5
41
100
AcDbEntity
  8
1
  6
Continuous
 62
     0
100
AcDb2dPolyline
 66
     1
 10
0.0
 20
0.0
 30
0.0
  0
VERTEX
  5
42
100
AcDbEntity
  8
1
  6
Continuous
 62
     0
100
AcDbVertex
100
AcDb2dVertex
 10
10.75
 20
1.978252
 30
0.0
  0
VERTEX
  5
43
100
AcDbEntity
  8
1
  6
Continuous
 62
     0
100
AcDbVertex
100
AcDb2dVertex
 10
11.0
 20
1.978252
 30
0.0
  0
SEQEND
  5
44
100
AcDbEntity
  8
1
  6
Continuous
 62
     0
  0
POLYLINE
  5
45
100
AcDbEntity
  8
1
  6
Continuous
 62
     0
100
AcDb2dPolyline
 66
     1
 10
0.0
 20
0.0
 30
0.0
  0
VERTEX
  5
46
100
AcDbEntity
  8
1
  6
Continuous
 62
     0
100
AcDbVertex
100
AcDb2dVertex
 10
11.0
 20
1.978252
 30
0.0
  0
VERTEX
  5
47
100
AcDbEntity
  8
1
  6
Continuous
 62
     0
100
AcDbVertex
100
AcDb2dVertex
 10
11.0
 20
1.978252
 30
0.0
  0
SEQEND
  5
48
100
AcDbEntity
  8
1
  6
Continuous
 62
     0
  0
POLYLINE
  5
49
100
AcDbEntity
  8
1
  6
Continuous
 62
     0
100
AcDb2dPolyline
 66
     1
 10
0.0
 20
0.0
 30
0.0
  0
VERTEX
  5
4A
100
AcDbEntity
  8
1
  6
Continuous
 62
     0
100
AcDbVertex
100
AcDb2dVertex
 10
12.5
 20
1.978252
 30
0.0
  0
VERTEX
  5
4B
100
AcDbEntity
  8
1
  6
Continuous
 62
     0
100
AcDbVertex
100
AcDb2dVertex
 10
12.25
 20
1.978252
 30
0.0
  0
VERTEX
  5
4C
100
AcDbEntity
  8
1
  6
Continuous
 62
     0
100
AcDbVertex
100
AcDb2dVertex
 10
12.0
 20
1.978252
 30
0.0
  0
VERTEX
  5
4D
100
AcDbEntity
  8
1
  6
Continuous
 62
     0
100
AcDbVertex
100
AcDb2dVertex
 10
12.0
 20
1.978252
 30
0.0
  0
SEQEND
  5
4E
100
AcDbEntity
  8
1
  6
Continuous
 62
     0
  0
POLYLINE
  5
50
102
{ACAD_REACTORS
330
4F
102
}
100
AcDbEntity
  8
1
  6
Continuous
 62
     0
100
AcDb2dPolyline
 66
     1
 10
0.0
 20
0.0
 30
0.0
 70
     1
  0
VERTEX
  5
51
100
AcDbEntity
  8
1
  6
Continuous
 62
     0
100
AcDbVertex
100
AcDb2dVertex
 10
11.75
 20
1.978252
 30
0.0
  0
VERTEX
  5
52
100
AcDbEntity
  8
1
  6
Continuous
 62
     0
100
AcDbVertex
100
AcDb2dVertex
 10
12.0
 20
1.945752
 30
0.0
  0
VERTEX
  5
53
100
AcDbEntity
  8
1
  6
Continuous
 62
     0
100
AcDbVertex
100
AcDb2dVertex
 10
12.0
 20
2.010752
 30
0.0
  0
SEQEND
  5
54
100
AcDbEntity
  8
1
  6
Continuous
 62
     0
  0
HATCH
  5
4F
100
AcDbEntity
  8
1
  6
Continuous
 62
     0
100
AcDbHatch
 10
0.0
 20
0.0
 30
0.0
210
0.0
220
0.0
230
1.0
  2
SOLID
 70
     1
 71
     1
 91
        1
 92
        3
 72
     0
 73
     1
 93
        3
 10
11.75
 20
1.9782519999999999
 10
12.0
 20
1.9457519999999999
 10
12.0
 20
2.0107520000000001
 97
        1
330
50
 75
     0
 76
     0
 98
        0
  0
POLYLINE
  5
56
102
{ACAD_REACTORS
330
55
102
}
100
AcDbEntity
  8
1
  6
Continuous
 62
     0
100
AcDb2dPolyline
 66
     1
 10
0.0
 20
0.0
 30
0.0
 70
     1
  0
VERTEX
  5
57
100
AcDbEntity
  8
1
  6
Continuous
 62
     0
100
AcDbVertex
100
AcDb2dVertex
 10
11.25
 20
1.978252
 30
0.0
  0
VERTEX
  5
58
100
AcDbEntity
  8
1
  6
Continuous
 62
     0
100
AcDbVertex
100
AcDb2dVertex
 10
11.0
 20
2.010752
 30
0.0
  0
VERTEX
  5
59
100
AcDbEntity
  8
1
  6
Continuous
 62
     0
100
AcDbVertex
100
AcDb2dVertex
 10
11.0
 20
1.945752
 30
0.0
  0
SEQEND
  5
5A
100
AcDbEntity
  8
1
  6
Continuous
 62
     0
  0
HATCH
  5
55
100
AcDbEntity
  8
1
  6
Continuous
 62
     0
100
AcDbHatch
 10
0.0
 20
0.0
 30
0.0
210
0.0
220
0.0
230
1.0
  2
SOLID
 70
     1
 71
     1
 91
        1
 92
        3
 72
     0
 73
     1
 93
        3
 10
11.25
 20
1.9782519999999999
 10
11.0
 20
2.0107520000000001
 10
11.0
 20
1.9457519999999999
 97
        1
330
56
 75
     0
 76
     0
 98
        0
  0
TEXT
  5
5B
100
AcDbEntity
  8
1
  6
Continuous
 62
     0
100
AcDbText
 10
12.59
 20
1.853252
 30
0.0
 40
0.25
  1
0.50
 72
     5
 11
13.34
 21
1.853252
 31
0.0
100
AcDbText
  0
TEXT
  5
5C
100
AcDbEntity
  8
1
  6
Continuous
 62
     0
100
AcDbText
 10
13.34
 20
1.853252
 30
0.0
 40
0.25
  1
in
 72
     5
 11
13.673333
 21
1.853252
 31
0.0
100
AcDbText
  0
ENDBLK
  5
5D
100
AcDbEntity
  8
0
100
AcDbBlockEnd
  0
BLOCK
  5
62
100
AcDbEntity
  8
0
100
AcDbBlockBegin
  2
*D1
 70
     1
 10
0.0
 20
0.0
 30
0.0
  3
*D1
  1

  0
LINE
  5
63
100
AcDbEntity
  8
1
  6
Continuous
 62
     0
100
AcDbLine
 10
7.25
 20
1.5625
 30
0.0
 11
7.25
 21
2.265185
 31
0.0
  0
LINE
  5
64
100
AcDbEntity
  8
1
  6
Continuous
 62
     0
100
AcDbLine
 10
6.694
 20
0.4625
 30
0.0
 11
6.694
 21
2.265185
 31
0.0
  0
POLYLINE
  5
65
100
AcDbEntity
  8
1
  6
Continuous
 62
     0
100
AcDb2dPolyline
 66
     1
 10
0.0
 20
0.0
 30
0.0
  0
VERTEX
  5
66
100
AcDbEntity
  8
1
  6
Continuous
 62
     0
100
AcDbVertex
100
AcDb2dVertex
 10
7.75
 20
2.015185
 30
0.0
  0
VERTEX
  5
67
100
AcDbEntity
  8
1
  6
Continuous
 62
     0
100
AcDbVertex
100
AcDb2dVertex
 10
7.5
 20
2.015185
 30
0.0
  0
SEQEND
  5
68
100
AcDbEntity
  8
1
  6
Continuous
 62
     0
  0
POLYLINE
  5
69
100
AcDbEntity
  8
1
  6
Continuous
 62
     0
100
AcDb2dPolyline
 66
     1
 10
0.0
 20
0.0
 30
0.0
  0
VERTEX
  5
6A
100
AcDbEntity
  8
1
  6
Continuous
 62
     0
100
AcDbVertex
100
AcDb2dVertex
 10
7.5
 20
2.015185
 30
0.0
  0
VERTEX
  5
6B
100
AcDbEntity
  8
1
  6
Continuous
 62
     0
100
AcDbVertex
100
AcDb2dVertex
 10
7.5
 20
2.015185
 30
0.0
  0
SEQEND
  5
6C
100
AcDbEntity
  8
1
  6
Continuous
 62
     0
  0
POLYLINE
  5
6D
100
AcDbEntity
  8
1
  6
Continuous
 62
     0
100
AcDb2dPolyline
 66
     1
 10
0.0
 20
0.0
 30
0.0
  0
VERTEX
  5
6E
100
AcDbEntity
  8
1
  6
Continuous
 62
     0
100
AcDbVertex
100
AcDb2dVertex
 10
5.944
 20
2.015185
 30
0.0
  0
VERTEX
  5
6F
100
AcDbEntity
  8
1
  6
Continuous
 62
     0
100
AcDbVertex
100
AcDb2dVertex
 10
6.194
 20
2.015185
 30
0.0
  0
VERTEX
  5
70
100
AcDbEntity
  8
1
  6
Continuous
 62
     0
100
AcDbVertex
100
AcDb2dVertex
 10
6.444
 20
2.015185
 30
0.0
  0
VERTEX
  5
71
100
AcDbEntity
  8
1
  6
Continuous
 62
     0
100
AcDbVertex
100
AcDb2dVertex
 10
6.444
 20
2.015185
 30
0.0
  0
SEQEND
  5
72
100
AcDbEntity
  8
1
  6
Continuous
 62
     0
  0
POLYLINE
  5
74
102
{ACAD_REACTORS
330
73
102
}
100
AcDbEntity
  8
1
  6
Continuous
 62
     0
100
AcDb2dPolyline
 66
     1
 10
0.0
 20
0.0
 30
0.0
 70
     1
  0
VERTEX
  5
75
100
AcDbEntity
  8
1
  6
Continuous
 62
     0
100
AcDbVertex
100
AcDb2dVertex
 10
6.694
 20
2.015185
 30
0.0
  0
VERTEX
  5
76
100
AcDbEntity
  8
1
  6
Continuous
 62
     0
100
AcDbVertex
100
AcDb2dVertex
 10
6.444
 20
2.047685
 30
0.0
  0
VERTEX
  5
77
100
AcDbEntity
  8
1
  6
Continuous
 62
     0
100
AcDbVertex
100
AcDb2dVertex
 10
6.444
 20
1.982685
 30
0.0
  0
SEQEND
  5
78
100
AcDbEntity
  8
1
  6
Continuous
 62
     0
  0
HATCH
  5
73
100
AcDbEntity
  8
1
  6
Continuous
 62
     0
100
AcDbHatch
 10
0.0
 20
0.0
 30
0.0
210
0.0
220
0.0
230
1.0
  2
SOLID
 70
     1
 71
     1
 91
        1
 92
        3
 72
     0
 73
     1
 93
        3
 10
6.694
 20
2.0151849999999998
 10
6.444
 20
2.047685
 10
6.444
 20
1.9826849999999998
 97
        1
330
74
 75
     0
 76
     0
 98
        0
  0
POLYLINE
  5
7A
102
{ACAD_REACTORS
330
79
102
}
100
AcDbEntity
  8
1
  6
Continuous
 62
     0
100
AcDb2dPolyline
 66
     1
 10
0.0
 20
0.0
 30
0.0
 70
     1
  0
VERTEX
  5
7B
100
AcDbEntity
  8
1
  6
Continuous
 62
     0
100
AcDbVertex
100
AcDb2dVertex
 10
7.25
 20
2.015185
 30
0.0
  0
VERTEX
  5
7C
100
AcDbEntity
  8
1
  6
Continuous
 62
     0
100
AcDbVertex
100
AcDb2dVertex
 10
7.5
 20
1.982685
 30
0.0
  0
VERTEX
  5
7D
100
AcDbEntity
  8
1
  6
Continuous
 62
     0
100
AcDbVertex
100
AcDb2dVertex
 10
7.5
 20
2.047685
 30
0.0
  0
SEQEND
  5
7E
100
AcDbEntity
  8
1
  6
Continuous
 62
     0
  0
HATCH
  5
79
100
AcDbEntity
  8
1
  6
Continuous
 62
     0
100
AcDbHatch
 10
0.0
 20
0.0
 30
0.0
210
0.0
220
0.0
230
1.0
  2
SOLID
 70
     1
 71
     1
 91
        1
 92
        3
 72
     0
 73
     1
 93
        3
 10
7.25
 20
2.0151849999999998
 10
7.5
 20
1.9826849999999998
 10
7.5
 20
2.047685
 97
        1
330
7A
 75
     0
 76
     0
 98
        0
  0
TEXT
  5
7F
100
AcDbEntity
  8
1
  6
Continuous
 62
     0
100
AcDbText
 10
4.729
 20
1.890185
 30
0.0
 40
0.25
  1
0.56
 72
     5
 11
5.520667
 21
1.890185
 31
0.0
100
AcDbText
  0
TEXT
  5
80
100
AcDbEntity
  8
1
  6
Continuous
 62
     0
100
AcDbText
 10
5.520667
 20
1.890185
 30
0.0
 40
0.25
  1
in
 72
     5
 11
5.854
 21
1.890185
 31
0.0
100
AcDbText
  0
ENDBLK
  5
81
100
AcDbEntity
  8
0
100
AcDbBlockEnd
  0
BLOCK
  5
87
100
AcDbEntity
  8
0
100
AcDbBlockBegin
  2
*D2
 70
     1
 10
0.0
 20
0.0
 30
0.0
  3
*D2
  1

  0
LINE
  5
88
100
AcDbEntity
  8
1
  6
Continuous
 62
     0
100
AcDbLine
 10
6.694
 20
0.4625
 30
0.0
 11
6.694
 21
3.003735
 31
0.0
  0
LINE
  5
89
100
AcDbEntity
  8
1
  6
Continuous
 62
     0
100
AcDbLine
 10
14.569
 20
1.1875
 30
0.0
 11
14.569
 21
3.003735
 31
0.0
  0
POLYLINE
  5
8A
100
AcDbEntity
  8
1
  6
Continuous
 62
     0
100
AcDb2dPolyline
 66
     1
 10
0.0
 20
0.0
 30
0.0
  0
VERTEX
  5
8B
100
AcDbEntity
  8
1
  6
Continuous
 62
     0
100
AcDbVertex
100
AcDb2dVertex
 10
6.944
 20
2.753735
 30
0.0
  0
VERTEX
  5
8C
100
AcDbEntity
  8
1
  6
Continuous
 62
     0
100
AcDbVertex
100
AcDb2dVertex
 10
6.944
 20
2.753735
 30
0.0
  0
VERTEX
  5
8D
100
AcDbEntity
  8
1
  6
Continuous
 62
     0
100
AcDbVertex
100
AcDb2dVertex
 10
6.944
 20
2.753735
 30
0.0
  0
VERTEX
  5
8E
100
AcDbEntity
  8
1
  6
Continuous
 62
     0
100
AcDbVertex
100
AcDb2dVertex
 10
9.958167
 20
2.753735
 30
0.0
  0
SEQEND
  5
8F
100
AcDbEntity
  8
1
  6
Continuous
 62
     0
  0
POLYLINE
  5
90
100
AcDbEntity
  8
1
  6
Continuous
 62
     0
100
AcDb2dPolyline
 66
     1
 10
0.0
 20
0.0
 30
0.0
  0
VERTEX
  5
91
100
AcDbEntity
  8
1
  6
Continuous
 62
     0
100
AcDbVertex
100
AcDb2dVertex
 10
14.319
 20
2.753735
 30
0.0
  0
VERTEX
  5
92
100
AcDbEntity
  8
1
  6
Continuous
 62
     0
100
AcDbVertex
100
AcDb2dVertex
 10
14.319
 20
2.753735
 30
0.0
  0
VERTEX
  5
93
100
AcDbEntity
  8
1
  6
Continuous
 62
     0
100
AcDbVertex
100
AcDb2dVertex
 10
14.319
 20
2.753735
 30
0.0
  0
VERTEX
  5
94
100
AcDbEntity
  8
1
  6
Continuous
 62
     0
100
AcDbVertex
100
AcDb2dVertex
 10
11.304833
 20
2.753735
 30
0.0
  0
SEQEND
  5
95
100
AcDbEntity
  8
1
  6
Continuous
 62
     0
  0
POLYLINE
  5
97
102
{ACAD_REACTORS
330
96
102
}
100
AcDbEntity
  8
1
  6
Continuous
 62
     0
100
AcDb2dPolyline
 66
     1
 10
0.0
 20
0.0
 30
0.0
 70
     1
  0
VERTEX
  5
98
100
AcDbEntity
  8
1
  6
Continuous
 62
     0
100
AcDbVertex
100
AcDb2dVertex
 10
6.694
 20
2.753735
 30
0.0
  0
VERTEX
  5
99
100
AcDbEntity
  8
1
  6
Continuous
 62
     0
100
AcDbVertex
100
AcDb2dVertex
 10
6.944
 20
2.721235
 30
0.0
  0
VERTEX
  5
9A
100
AcDbEntity
  8
1
  6
Continuous
 62
     0
100
AcDbVertex
100
AcDb2dVertex
 10
6.944
 20
2.786235
 30
0.0
  0
SEQEND
  5
9B
100
AcDbEntity
  8
1
  6
Continuous
 62
     0
  0
HATCH
  5
96
100
AcDbEntity
  8
1
  6
Continuous
 62
     0
100
AcDbHatch
 10
0.0
 20
0.0
 30
0.0
210
0.0
220
0.0
230
1.0
  2
SOLID
 70
     1
 71
     1
 91
        1
 92
        3
 72
     0
 73
     1
 93
        3
 10
6.694
 20
2.7537349999999998
 10
6.944
 20
2.7212349999999996
 10
6.944
 20
2.786235
 97
        1
330
97
 75
     0
 76
     0
 98
        0
  0
POLYLINE
  5
9D
102
{ACAD_REACTORS
330
9C
102
}
100
AcDbEntity
  8
1
  6
Continuous
 62
     0
100
AcDb2dPolyline
 66
     1
 10
0.0
 20
0.0
 30
0.0
 70
     1
  0
VERTEX
  5
9E
100
AcDbEntity
  8
1
  6
Continuous
 62
     0
100
AcDbVertex
100
AcDb2dVertex
 10
14.569
 20
2.753735
 30
0.0
  0
VERTEX
  5
9F
100
AcDbEntity
  8
1
  6
Continuous
 62
     0
100
AcDbVertex
100
AcDb2dVertex
 10
14.319
 20
2.786235
 30
0.0
  0
VERTEX
  5
A0
100
AcDbEntity
  8
1
  6
Continuous
 62
     0
100
AcDbVertex
100
AcDb2dVertex
 10
14.319
 20
2.721235
 30
0.0
  0
SEQEND
  5
A1
100
AcDbEntity
  8
1
  6
Continuous
 62
     0
  0
HATCH
  5
9C
100
AcDbEntity
  8
1
  6
Continuous
 62
     0
100
AcDbHatch
 10
0.0
 20
0.0
 30
0.0
210
0.0
220
0.0
230
1.0
  2
SOLID
 70
     1
 71
     1
 91
        1
 92
        3
 72
     0
 73
     1
 93
        3
 10
14.569000000000001
 20
2.7537349999999998
 10
14.319000000000001
 20
2.786235
 10
14.319000000000001
 20
2.7212349999999996
 97
        1
330
9D
 75
     0
 76
     0
 98
        0
  0
TEXT
  5
A2
100
AcDbEntity
  8
1
  6
Continuous
 62
     0
100
AcDbText
 10
10.048167
 20
2.628735
 30
0.0
 40
0.25
  1
7.88
 72
     5
 11
10.8815
 21
2.628735
 31
0.0
100
AcDbText
  0
TEXT
  5
A3
100
AcDbEntity
  8
1
  6
Continuous
 62
     0
100
AcDbText
 10
10.8815
 20
2.628735
 30
0.0
 40
0.25
  1
in
 72
     5
 11
11.214833
 21
2.628735
 31
0.0
100
AcDbText
  0
ENDBLK
  5
A4
100
AcDbEntity
  8
0
100
AcDbBlockEnd
  0
BLOCK
  5
A7
100
AcDbEntity
  8
0
100
AcDbBlockBegin
  2
*D3
 70
     1
 10
0.0
 20
0.0
 30
0.0
  3
*D3
  1

  0
LINE
  5
A8
100
AcDbEntity
  8
1
  6
Continuous
 62
     0
100
AcDbLine
 10
-2.25
 20
-1.5625
 30
0.0
 11
-2.25
 21
-3.181709
 31
0.0
  0
LINE
  5
A9
100
AcDbEntity
  8
1
  6
Continuous
 62
     0
100
AcDbLine
 10
2.25
 20
-1.5625
 30
0.0
 11
2.25
 21
-3.181709
 31
0.0
  0
POLYLINE
  5
AA
100
AcDbEntity
  8
1
  6
Continuous
 62
     0
100
AcDb2dPolyline
 66
     1
 10
0.0
 20
0.0
 30
0.0
  0
VERTEX
  5
AB
100
AcDbEntity
  8
1
  6
Continuous
 62
     0
100
AcDbVertex
100
AcDb2dVertex
 10
-2.0
 20
-2.931709
 30
0.0
  0
VERTEX
  5
AC
100
AcDbEntity
  8
1
  6
Continuous
 62
     0
100
AcDbVertex
100
AcDb2dVertex
 10
-2.0
 20
-2.931709
 30
0.0
  0
VERTEX
  5
AD
100
AcDbEntity
  8
1
  6
Continuous
 62
     0
100
AcDbVertex
100
AcDb2dVertex
 10
-2.0
 20
-2.931709
 30
0.0
  0
VERTEX
  5
AE
100
AcDbEntity
  8
1
  6
Continuous
 62
     0
100
AcDbVertex
100
AcDb2dVertex
 10
-0.6525
 20
-2.931709
 30
0.0
  0
SEQEND
  5
AF
100
AcDbEntity
  8
1
  6
Continuous
 62
     0
  0
POLYLINE
  5
B0
100
AcDbEntity
  8
1
  6
Continuous
 62
     0
100
AcDb2dPolyline
 66
     1
 10
0.0
 20
0.0
 30
0.0
  0
VERTEX
  5
B1
100
AcDbEntity
  8
1
  6
Continuous
 62
     0
100
AcDbVertex
100
AcDb2dVertex
 10
2.0
 20
-2.931709
 30
0.0
  0
VERTEX
  5
B2
100
AcDbEntity
  8
1
  6
Continuous
 62
     0
100
AcDbVertex
100
AcDb2dVertex
 10
2.0
 20
-2.931709
 30
0.0
  0
VERTEX
  5
B3
100
AcDbEntity
  8
1
  6
Continuous
 62
     0
100
AcDbVertex
100
AcDb2dVertex
 10
2.0
 20
-2.931709
 30
0.0
  0
VERTEX
  5
B4
100
AcDbEntity
  8
1
  6
Continuous
 62
     0
100
AcDbVertex
100
AcDb2dVertex
 10
0.6525
 20
-2.931709
 30
0.0
  0
SEQEND
  5
B5
100
AcDbEntity
  8
1
  6
Continuous
 62
     0
  0
POLYLINE
  5
B7
102
{ACAD_REACTORS
330
B6
102
}
100
AcDbEntity
  8
1
  6
Continuous
 62
     0
100
AcDb2dPolyline
 66
     1
 10
0.0
 20
0.0
 30
0.0
 70
     1
  0
VERTEX
  5
B8
100
AcDbEntity
  8
1
  6
Continuous
 62
     0
100
AcDbVertex
100
AcDb2dVertex
 10
-2.25
 20
-2.931709
 30
0.0
  0
VERTEX
  5
B9
100
AcDbEntity
  8
1
  6
Continuous
 62
     0
100
AcDbVertex
100
AcDb2dVertex
 10
-2.0
 20
-2.964209
 30
0.0
  0
VERTEX
  5
BA
100
AcDbEntity
  8
1
  6
Continuous
 62
     0
100
AcDbVertex
100
AcDb2dVertex
 10
-2.0
 20
-2.899209
 30
0.0
  0
SEQEND
  5
BB
100
AcDbEntity
  8
1
  6
Continuous
 62
     0
  0
HATCH
  5
B6
100
AcDbEntity
  8
1
  6
Continuous
 62
     0
100
AcDbHatch
 10
0.0
 20
0.0
 30
0.0
210
0.0
220
0.0
230
1.0
  2
SOLID
 70
     1
 71
     1
 91
        1
 92
        3
 72
     0
 73
     1
 93
        3
 10
-2.25
 20
-2.9317090000000001
 10
-2.0
 20
-2.9642090000000003
 10
-2.0
 20
-2.8992089999999999
 97
        1
330
B7
 75
     0
 76
     0
 98
        0
  0
POLYLINE
  5
BD
102
{ACAD_REACTORS
330
BC
102
}
100
AcDbEntity
  8
1
  6
Continuous
 62
     0
100
AcDb2dPolyline
 66
     1
 10
0.0
 20
0.0
 30
0.0
 70
     1
  0
VERTEX
  5
BE
100
AcDbEntity
  8
1
  6
Continuous
 62
     0
100
AcDbVertex
100
AcDb2dVertex
 10
2.25
 20
-2.931709
 30
0.0
  0
VERTEX
  5
BF
100
AcDbEntity
  8
1
  6
Continuous
 62
     0
100
AcDbVertex
100
AcDb2dVertex
 10
2.0
 20
-2.899209
 30
0.0
  0
VERTEX
  5
C0
100
AcDbEntity
  8
1
  6
Continuous
 62
     0
100
AcDbVertex
100
AcDb2dVertex
 10
2.0
 20
-2.964209
 30
0.0
  0
SEQEND
  5
C1
100
AcDbEntity
  8
1
  6
Continuous
 62
     0
  0
HATCH
  5
BC
100
AcDbEntity
  8
1
  6
Continuous
 62
     0
100
AcDbHatch
 10
0.0
 20
0.0
 30
0.0
210
0.0
220
0.0
230
1.0
  2
SOLID
 70
     1
 71
     1
 91
        1
 92
        3
 72
     0
 73
     1
 93
        3
 10
2.25
 20
-2.9317090000000001
 10
2.0
 20
-2.8992089999999999
 10
2.0
 20
-2.9642090000000003
 97
        1
330
BD
 75
     0
 76
     0
 98
        0
  0
TEXT
  5
C2
100
AcDbEntity
  8
1
  6
Continuous
 62
     0
100
AcDbText
 10
-0.5625
 20
-3.056709
 30
0.0
 40
0.25
  1
4.50
 72
     5
 11
0.229167
 21
-3.056709
 31
0.0
100
AcDbText
  0
TEXT
  5
C3
100
AcDbEntity
  8
1
  6
Continuous
 62
     0
100
AcDbText
 10
0.229167
 20
-3.056709
 30
0.0
 40
0.25
  1
in
 72
     5
 11
0.5625
 21
-3.056709
 31
0.0
100
AcDbText
  0
ENDBLK
  5
C4
100
AcDbEntity
  8
0
100
AcDbBlockEnd
  0
BLOCK
  5
CB
100
AcDbEntity
  8
0
100
AcDbBlockBegin
  2
*D4
 70
     1
 10
0.0
 20
0.0
 30
0.0
  3
*D4
  1

  0
LINE
  5
CC
100
AcDbEntity
  8
1
  6
Continuous
 62
     0
100
AcDbLine
 10
7.5
 20
-1.5625
 30
0.0
 11
7.5
 21
-2.49972
 31
0.0
  0
LINE
  5
CD
100
AcDbEntity
  8
1
  6
Continuous
 62
     0
100
AcDbLine
 10
11.5
 20
-1.5625
 30
0.0
 11
11.5
 21
-2.49972
 31
0.0
  0
POLYLINE
  5
CE
100
AcDbEntity
  8
1
  6
Continuous
 62
     0
100
AcDb2dPolyline
 66
     1
 10
0.0
 20
0.0
 30
0.0
  0
VERTEX
  5
CF
100
AcDbEntity
  8
1
  6
Continuous
 62
     0
100
AcDbVertex
100
AcDb2dVertex
 10
7.75
 20
-2.24972
 30
0.0
  0
VERTEX
  5
D0
100
AcDbEntity
  8
1
  6
Continuous
 62
     0
100
AcDbVertex
100
AcDb2dVertex
 10
7.75
 20
-2.24972
 30
0.0
  0
VERTEX
  5
D1
100
AcDbEntity
  8
1
  6
Continuous
 62
     0
100
AcDbVertex
100
AcDb2dVertex
 10
7.75
 20
-2.24972
 30
0.0
  0
VERTEX
  5
D2
100
AcDbEntity
  8
1
  6
Continuous
 62
     0
100
AcDbVertex
100
AcDb2dVertex
 10
8.868333
 20
-2.24972
 30
0.0
  0
SEQEND
  5
D3
100
AcDbEntity
  8
1
  6
Continuous
 62
     0
  0
POLYLINE
  5
D4
100
AcDbEntity
  8
1
  6
Continuous
 62
     0
100
AcDb2dPolyline
 66
     1
 10
0.0
 20
0.0
 30
0.0
  0
VERTEX
  5
D5
100
AcDbEntity
  8
1
  6
Continuous
 62
     0
100
AcDbVertex
100
AcDb2dVertex
 10
11.25
 20
-2.24972
 30
0.0
  0
VERTEX
  5
D6
100
AcDbEntity
  8
1
  6
Continuous
 62
     0
100
AcDbVertex
100
AcDb2dVertex
 10
11.25
 20
-2.24972
 30
0.0
  0
VERTEX
  5
D7
100
AcDbEntity
  8
1
  6
Continuous
 62
     0
100
AcDbVertex
100
AcDb2dVertex
 10
11.25
 20
-2.24972
 30
0.0
  0
VERTEX
  5
D8
100
AcDbEntity
  8
1
  6
Continuous
 62
     0
100
AcDbVertex
100
AcDb2dVertex
 10
10.131667
 20
-2.24972
 30
0.0
  0
SEQEND
  5
D9
100
AcDbEntity
  8
1
  6
Continuous
 62
     0
  0
POLYLINE
  5
DB
102
{ACAD_REACTORS
330
DA
102
}
100
AcDbEntity
  8
1
  6
Continuous
 62
     0
100
AcDb2dPolyline
 66
     1
 10
0.0
 20
0.0
 30
0.0
 70
     1
  0
VERTEX
  5
DC
100
AcDbEntity
  8
1
  6
Continuous
 62
     0
100
AcDbVertex
100
AcDb2dVertex
 10
7.5
 20
-2.24972
 30
0.0
  0
VERTEX
  5
DD
100
AcDbEntity
  8
1
  6
Continuous
 62
     0
100
AcDbVertex
100
AcDb2dVertex
 10
7.75
 20
-2.28222
 30
0.0
  0
VERTEX
  5
DE
100
AcDbEntity
  8
1
  6
Continuous
 62
     0
100
AcDbVertex
100
AcDb2dVertex
 10
7.75
 20
-2.21722
 30
0.0
  0
SEQEND
  5
DF
100
AcDbEntity
  8
1
  6
Continuous
 62
     0
  0
HATCH
  5
DA
100
AcDbEntity
  8
1
  6
Continuous
 62
     0
100
AcDbHatch
 10
0.0
 20
0.0
 30
0.0
210
0.0
220
0.0
230
1.0
  2
SOLID
 70
     1
 71
     1
 91
        1
 92
        3
 72
     0
 73
     1
 93
        3
 10
7.5
 20
-2.2497199999999999
 10
7.75
 20
-2.2822200000000001
 10
7.75
 20
-2.2172199999999997
 97
        1
330
DB
 75
     0
 76
     0
 98
        0
  0
POLYLINE
  5
E1
102
{ACAD_REACTORS
330
E0
102
}
100
AcDbEntity
  8
1
  6
Continuous
 62
     0
100
AcDb2dPolyline
 66
     1
 10
0.0
 20
0.0
 30
0.0
 70
     1
  0
VERTEX
  5
E2
100
AcDbEntity
  8
1
  6
Continuous
 62
     0
100
AcDbVertex
100
AcDb2dVertex
 10
11.5
 20
-2.24972
 30
0.0
  0
VERTEX
  5
E3
100
AcDbEntity
  8
1
  6
Continuous
 62
     0
100
AcDbVertex
100
AcDb2dVertex
 10
11.25
 20
-2.21722
 30
0.0
  0
VERTEX
  5
E4
100
AcDbEntity
  8
1
  6
Continuous
 62
     0
100
AcDbVertex
100
AcDb2dVertex
 10
11.25
 20
-2.28222
 30
0.0
  0
SEQEND
  5
E5
100
AcDbEntity
  8
1
  6
Continuous
 62
     0
  0
HATCH
  5
E0
100
AcDbEntity
  8
1
  6
Continuous
 62
     0
100
AcDbHatch
 10
0.0
 20
0.0
 30
0.0
210
0.0
220
0.0
230
1.0
  2
SOLID
 70
     1
 71
     1
 91
        1
 92
        3
 72
     0
 73
     1
 93
        3
 10
11.5
 20
-2.2497199999999999
 10
11.25
 20
-2.2172199999999997
 10
11.25
 20
-2.2822200000000001
 97
        1
330
E1
 75
     0
 76
     0
 98
        0
  0
TEXT
  5
E6
100
AcDbEntity
  8
1
  6
Continuous
 62
     0
100
AcDbText
 10
8.958333
 20
-2.37472
 30
0.0
 40
0.25
  1
4.00
 72
     5
 11
9.708333
 21
-2.37472
 31
0.0
100
AcDbText
  0
TEXT
  5
E7
100
AcDbEntity
  8
1
  6
Continuous
 62
     0
100
AcDbText
 10
9.708333
 20
-2.37472
 30
0.0
 40
0.25
  1
in
 72
     5
 11
10.041667
 21
-2.37472
 31
0.0
100
AcDbText
  0
ENDBLK
  5
E8
100
AcDbEntity
  8
0
100
AcDbBlockEnd
  0
BLOCK
  5
122
100
AcDbEntity
  8
0
100
AcDbBlockBegin
  2
*D5
 70
     1
 10
0.0
 20
0.0
 30
0.0
  3
*D5
  1

  0
LINE
  5
123
100
AcDbEntity
  8
1
  6
Continuous
 62
     0
100
AcDbLine
 10
-2.0375
 20
-1.1875
 30
0.0
 11
-2.0375
 21
-0.66739
 31
0.0
  0
LINE
  5
124
100
AcDbEntity
  8
1
  6
Continuous
 62
     0
100
AcDbLine
 10
-1.8375
 20
-1.1875
 30
0.0
 11
-1.8375
 21
-0.66739
 31
0.0
  0
POLYLINE
  5
125
100
AcDbEntity
  8
1
  6
Continuous
 62
     0
100
AcDb2dPolyline
 66
     1
 10
0.0
 20
0.0
 30
0.0
  0
VERTEX
  5
126
100
AcDbEntity
  8
1
  6
Continuous
 62
     0
100
AcDbVertex
100
AcDb2dVertex
 10
-2.5375
 20
-0.91739
 30
0.0
  0
VERTEX
  5
127
100
AcDbEntity
  8
1
  6
Continuous
 62
     0
100
AcDbVertex
100
AcDb2dVertex
 10
-2.2875
 20
-0.91739
 30
0.0
  0
SEQEND
  5
128
100
AcDbEntity
  8
1
  6
Continuous
 62
     0
  0
POLYLINE
  5
129
100
AcDbEntity
  8
1
  6
Continuous
 62
     0
100
AcDb2dPolyline
 66
     1
 10
0.0
 20
0.0
 30
0.0
  0
VERTEX
  5
12A
100
AcDbEntity
  8
1
  6
Continuous
 62
     0
100
AcDbVertex
100
AcDb2dVertex
 10
-2.2875
 20
-0.91739
 30
0.0
  0
VERTEX
  5
12B
100
AcDbEntity
  8
1
  6
Continuous
 62
     0
100
AcDbVertex
100
AcDb2dVertex
 10
-2.2875
 20
-0.91739
 30
0.0
  0
SEQEND
  5
12C
100
AcDbEntity
  8
1
  6
Continuous
 62
     0
  0
POLYLINE
  5
12D
100
AcDbEntity
  8
1
  6
Continuous
 62
     0
100
AcDb2dPolyline
 66
     1
 10
0.0
 20
0.0
 30
0.0
  0
VERTEX
  5
12E
100
AcDbEntity
  8
1
  6
Continuous
 62
     0
100
AcDbVertex
100
AcDb2dVertex
 10
-1.0875
 20
-0.91739
 30
0.0
  0
VERTEX
  5
12F
100
AcDbEntity
  8
1
  6
Continuous
 62
     0
100
AcDbVertex
100
AcDb2dVertex
 10
-1.3375
 20
-0.91739
 30
0.0
  0
VERTEX
  5
130
100
AcDbEntity
  8
1
  6
Continuous
 62
     0
100
AcDbVertex
100
AcDb2dVertex
 10
-1.5875
 20
-0.91739
 30
0.0
  0
VERTEX
  5
131
100
AcDbEntity
  8
1
  6
Continuous
 62
     0
100
AcDbVertex
100
AcDb2dVertex
 10
-1.5875
 20
-0.91739
 30
0.0
  0
SEQEND
  5
132
100
AcDbEntity
  8
1
  6
Continuous
 62
     0
  0
POLYLINE
  5
134
102
{ACAD_REACTORS
330
133
102
}
100
AcDbEntity
  8
1
  6
Continuous
 62
     0
100
AcDb2dPolyline
 66
     1
 10
0.0
 20
0.0
 30
0.0
 70
     1
  0
VERTEX
  5
135
100
AcDbEntity
  8
1
  6
Continuous
 62
     0
100
AcDbVertex
100
AcDb2dVertex
 10
-1.8375
 20
-0.91739
 30
0.0
  0
VERTEX
  5
136
100
AcDbEntity
  8
1
  6
Continuous
 62
     0
100
AcDbVertex
100
AcDb2dVertex
 10
-1.5875
 20
-0.94989
 30
0.0
  0
VERTEX
  5
137
100
AcDbEntity
  8
1
  6
Continuous
 62
     0
100
AcDbVertex
100
AcDb2dVertex
 10
-1.5875
 20
-0.88489
 30
0.0
  0
SEQEND
  5
138
100
AcDbEntity
  8
1
  6
Continuous
 62
     0
  0
HATCH
  5
133
100
AcDbEntity
  8
1
  6
Continuous
 62
     0
100
AcDbHatch
 10
0.0
 20
0.0
 30
0.0
210
0.0
220
0.0
230
1.0
  2
SOLID
 70
     1
 71
     1
 91
        1
 92
        3
 72
     0
 73
     1
 93
        3
 10
-1.8374999999999999
 20
-0.91739
 10
-1.5874999999999999
 20
-0.94989
 10
-1.5874999999999999
 20
-0.8848900000000001
 97
        1
330
134
 75
     0
 76
     0
 98
        0
  0
POLYLINE
  5
13A
102
{ACAD_REACTORS
330
139
102
}
100
AcDbEntity
  8
1
  6
Continuous
 62
     0
100
AcDb2dPolyline
 66
     1
 10
0.0
 20
0.0
 30
0.0
 70
     1
  0
VERTEX
  5
13B
100
AcDbEntity
  8
1
  6
Continuous
 62
     0
100
AcDbVertex
100
AcDb2dVertex
 10
-2.0375
 20
-0.91739
 30
0.0
  0
VERTEX
  5
13C
100
AcDbEntity
  8
1
  6
Continuous
 62
     0
100
AcDbVertex
100
AcDb2dVertex
 10
-2.2875
 20
-0.88489
 30
0.0
  0
VERTEX
  5
13D
100
AcDbEntity
  8
1
  6
Continuous
 62
     0
100
AcDbVertex
100
AcDb2dVertex
 10
-2.2875
 20
-0.94989
 30
0.0
  0
SEQEND
  5
13E
100
AcDbEntity
  8
1
  6
Continuous
 62
     0
  0
HATCH
  5
139
100
AcDbEntity
  8
1
  6
Continuous
 62
     0
100
AcDbHatch
 10
0.0
 20
0.0
 30
0.0
210
0.0
220
0.0
230
1.0
  2
SOLID
 70
     1
 71
     1
 91
        1
 92
        3
 72
     0
 73
     1
 93
        3
 10
-2.0375000000000001
 20
-0.91739
 10
-2.2875000000000001
 20
-0.8848900000000001
 10
-2.2875000000000001
 20
-0.94989
 97
        1
330
13A
 75
     0
 76
     0
 98
        0
  0
TEXT
  5
13F
100
AcDbEntity
  8
1
  6
Continuous
 62
     0
100
AcDbText
 10
-0.9975
 20
-1.04239
 30
0.0
 40
0.25
  1
0.20
 72
     5
 11
-0.2475
 21
-1.04239
 31
0.0
100
AcDbText
  0
TEXT
  5
140
100
AcDbEntity
  8
1
  6
Continuous
 62
     0
100
AcDbText
 10
-0.2475
 20
-1.04239
 30
0.0
 40
0.25
  1
in
 72
     5
 11
0.085833
 21
-1.04239
 31
0.0
100
AcDbText
  0
ENDBLK
  5
141
100
AcDbEntity
  8
0
100
AcDbBlockEnd
  0
BLOCK
  5
144
100
AcDbEntity
  8
0
100
AcDbBlockBegin
  2
*D6
 70
     1
 10
0.0
 20
0.0
 30
0.0
  3
*D6
  1

  0
LINE
  5
145
100
AcDbEntity
  8
1
  6
Continuous
 62
     0
100
AcDbLine
 10
-1.9375
 20
-1.5625
 30
0.0
 11
-1.9375
 21
-2.304692
 31
0.0
  0
LINE
  5
146
100
AcDbEntity
  8
1
  6
Continuous
 62
     0
100
AcDbLine
 10
1.9375
 20
-1.5625
 30
0.0
 11
1.9375
 21
-2.304692
 31
0.0
  0
POLYLINE
  5
147
100
AcDbEntity
  8
1
  6
Continuous
 62
     0
100
AcDb2dPolyline
 66
     1
 10
0.0
 20
0.0
 30
0.0
  0
VERTEX
  5
148
100
AcDbEntity
  8
1
  6
Continuous
 62
     0
100
AcDbVertex
100
AcDb2dVertex
 10
-1.6875
 20
-2.054692
 30
0.0
  0
VERTEX
  5
149
100
AcDbEntity
  8
1
  6
Continuous
 62
     0
100
AcDbVertex
100
AcDb2dVertex
 10
-1.6875
 20
-2.054692
 30
0.0
  0
VERTEX
  5
14A
100
AcDbEntity
  8
1
  6
Continuous
 62
     0
100
AcDbVertex
100
AcDb2dVertex
 10
-1.6875
 20
-2.054692
 30
0.0
  0
VERTEX
  5
14B
100
AcDbEntity
  8
1
  6
Continuous
 62
     0
100
AcDbVertex
100
AcDb2dVertex
 10
-0.673333
 20
-2.054692
 30
0.0
  0
SEQEND
  5
14C
100
AcDbEntity
  8
1
  6
Continuous
 62
     0
  0
POLYLINE
  5
14D
100
AcDbEntity
  8
1
  6
Continuous
 62
     0
100
AcDb2dPolyline
 66
     1
 10
0.0
 20
0.0
 30
0.0
  0
VERTEX
  5
14E
100
AcDbEntity
  8
1
  6
Continuous
 62
     0
100
AcDbVertex
100
AcDb2dVertex
 10
1.6875
 20
-2.054692
 30
0.0
  0
VERTEX
  5
14F
100
AcDbEntity
  8
1
  6
Continuous
 62
     0
100
AcDbVertex
100
AcDb2dVertex
 10
1.6875
 20
-2.054692
 30
0.0
  0
VERTEX
  5
150
100
AcDbEntity
  8
1
  6
Continuous
 62
     0
100
AcDbVertex
100
AcDb2dVertex
 10
1.6875
 20
-2.054692
 30
0.0
  0
VERTEX
  5
151
100
AcDbEntity
  8
1
  6
Continuous
 62
     0
100
AcDbVertex
100
AcDb2dVertex
 10
0.673333
 20
-2.054692
 30
0.0
  0
SEQEND
  5
152
100
AcDbEntity
  8
1
  6
Continuous
 62
     0
  0
POLYLINE
  5
154
102
{ACAD_REACTORS
330
153
102
}
100
AcDbEntity
  8
1
  6
Continuous
 62
     0
100
AcDb2dPolyline
 66
     1
 10
0.0
 20
0.0
 30
0.0
 70
     1
  0
VERTEX
  5
155
100
AcDbEntity
  8
1
  6
Continuous
 62
     0
100
AcDbVertex
100
AcDb2dVertex
 10
-1.9375
 20
-2.054692
 30
0.0
  0
VERTEX
  5
156
100
AcDbEntity
  8
1
  6
Continuous
 62
     0
100
AcDbVertex
100
AcDb2dVertex
 10
-1.6875
 20
-2.087192
 30
0.0
  0
VERTEX
  5
157
100
AcDbEntity
  8
1
  6
Continuous
 62
     0
100
AcDbVertex
100
AcDb2dVertex
 10
-1.6875
 20
-2.022192
 30
0.0
  0
SEQEND
  5
158
100
AcDbEntity
  8
1
  6
Continuous
 62
     0
  0
HATCH
  5
153
100
AcDbEntity
  8
1
  6
Continuous
 62
     0
100
AcDbHatch
 10
0.0
 20
0.0
 30
0.0
210
0.0
220
0.0
230
1.0
  2
SOLID
 70
     1
 71
     1
 91
        1
 92
        3
 72
     0
 73
     1
 93
        3
 10
-1.9375
 20
-2.0546920000000002
 10
-1.6875
 20
-2.0871920000000004
 10
-1.6875
 20
-2.022192
 97
        1
330
154
 75
     0
 76
     0
 98
        0
  0
POLYLINE
  5
15A
102
{ACAD_REACTORS
330
159
102
}
100
AcDbEntity
  8
1
  6
Continuous
 62
     0
100
AcDb2dPolyline
 66
     1
 10
0.0
 20
0.0
 30
0.0
 70
     1
  0
VERTEX
  5
15B
100
AcDbEntity
  8
1
  6
Continuous
 62
     0
100
AcDbVertex
100
AcDb2dVertex
 10
1.9375
 20
-2.054692
 30
0.0
  0
VERTEX
  5
15C
100
AcDbEntity
  8
1
  6
Continuous
 62
     0
100
AcDbVertex
100
AcDb2dVertex
 10
1.6875
 20
-2.022192
 30
0.0
  0
VERTEX
  5
15D
100
AcDbEntity
  8
1
  6
Continuous
 62
     0
100
AcDbVertex
100
AcDb2dVertex
 10
1.6875
 20
-2.087192
 30
0.0
  0
SEQEND
  5
15E
100
AcDbEntity
  8
1
  6
Continuous
 62
     0
  0
HATCH
  5
159
100
AcDbEntity
  8
1
  6
Continuous
 62
     0
100
AcDbHatch
 10
0.0
 20
0.0
 30
0.0
210
0.0
220
0.0
230
1.0
  2
SOLID
 70
     1
 71
     1
 91
        1
 92
        3
 72
     0
 73
     1
 93
        3
 10
1.9375
 20
-2.0546920000000002
 10
1.6875
 20
-2.022192
 10
1.6875
 20
-2.0871920000000004
 97
        1
330
15A
 75
     0
 76
     0
 98
        0
  0
TEXT
  5
15F
100
AcDbEntity
  8
1
  6
Continuous
 62
     0
100
AcDbText
 10
-0.583333
 20
-2.179692
 30
0.0
 40
0.25
  1
3.88
 72
     5
 11
0.25
 21
-2.179692
 31
0.0
100
AcDbText
  0
TEXT
  5
160
100
AcDbEntity
  8
1
  6
Continuous
 62
     0
100
AcDbText
 10
0.25
 20
-2.179692
 30
0.0
 40
0.25
  1
in
 72
     5
 11
0.583333
 21
-2.179692
 31
0.0
100
AcDbText
  0
ENDBLK
  5
161
100
AcDbEntity
  8
0
100
AcDbBlockEnd
  0
BLOCK
  5
1E1
100
AcDbEntity
  8
0
100
AcDbBlockBegin
  2
*D7
 70
     1
 10
0.0
 20
0.0
 30
0.0
  3
*D7
  1

  0
LINE
  5
1E2
100
AcDbEntity
  8
0
370
     0
  6
Continuous
 62
     0
100
AcDbLine
 10
2.3125
 20
1.5
 30
0.0
 11
3.18
 21
1.5
 31
0.0
  0
LINE
  5
1E3
100
AcDbEntity
  8
0
370
     0
  6
Continuous
 62
     0
100
AcDbLine
 10
2.3125
 20
-1.5
 30
0.0
 11
3.18
 21
-1.5
 31
0.0
  0
POLYLINE
  5
1E4
100
AcDbEntity
  8
0
370
     0
  6
Continuous
 62
     0
100
AcDb2dPolyline
 66
     1
 10
0.0
 20
0.0
 30
0.0
 70
   128
  0
VERTEX
  5
1E5
100
AcDbEntity
  8
0
  6
Continuous
 62
     0
100
AcDbVertex
100
AcDb2dVertex
 10
3.0
 20
1.32
 30
0.0
  0
VERTEX
  5
1E6
100
AcDbEntity
  8
0
  6
Continuous
 62
     0
100
AcDbVertex
100
AcDb2dVertex
 10
3.0
 20
1.32
 30
0.0
  0
VERTEX
  5
1E7
100
AcDbEntity
  8
0
  6
Continuous
 62
     0
100
AcDbVertex
100
AcDb2dVertex
 10
3.0
 20
1.32
 30
0.0
  0
VERTEX
  5
1E8
100
AcDbEntity
  8
0
  6
Continuous
 62
     0
100
AcDbVertex
100
AcDb2dVertex
 10
3.0
 20
0.18
 30
0.0
  0
SEQEND
  5
1E9
100
AcDbEntity
  8
0
  6
Continuous
 62
     0
  0
POLYLINE
  5
1EA
100
AcDbEntity
  8
0
370
     0
  6
Continuous
 62
     0
100
AcDb2dPolyline
 66
     1
 10
0.0
 20
0.0
 30
0.0
 70
   128
  0
VERTEX
  5
1EB
100
AcDbEntity
  8
0
  6
Continuous
 62
     0
100
AcDbVertex
100
AcDb2dVertex
 10
3.0
 20
-1.32
 30
0.0
  0
VERTEX
  5
1EC
100
AcDbEntity
  8
0
  6
Continuous
 62
     0
100
AcDbVertex
100
AcDb2dVertex
 10
3.0
 20
-1.32
 30
0.0
  0
VERTEX
  5
1ED
100
AcDbEntity
  8
0
  6
Continuous
 62
     0
100
AcDbVertex
100
AcDb2dVertex
 10
3.0
 20
-1.32
 30
0.0
  0
VERTEX
  5
1EE
100
AcDbEntity
  8
0
  6
Continuous
 62
     0
100
AcDbVertex
100
AcDb2dVertex
 10
3.0
 20
-0.18
 30
0.0
  0
SEQEND
  5
1EF
100
AcDbEntity
  8
0
  6
Continuous
 62
     0
  0
POLYLINE
  5
1F1
102
{ACAD_REACTORS
330
1F0
102
}
100
AcDbEntity
  8
0
370
     0
  6
Continuous
 62
     0
100
AcDb2dPolyline
 66
     1
 10
0.0
 20
0.0
 30
0.0
 70
   129
  0
VERTEX
  5
1F2
100
AcDbEntity
  8
0
  6
Continuous
 62
     0
100
AcDbVertex
100
AcDb2dVertex
 10
3.0
 20
1.5
 30
0.0
  0
VERTEX
  5
1F3
100
AcDbEntity
  8
0
  6
Continuous
 62
     0
100
AcDbVertex
100
AcDb2dVertex
 10
2.9766
 20
1.32
 30
0.0
  0
VERTEX
  5
1F4
100
AcDbEntity
  8
0
  6
Continuous
 62
     0
100
AcDbVertex
100
AcDb2dVertex
 10
3.0234
 20
1.32
 30
0.0
  0
SEQEND
  5
1F5
100
AcDbEntity
  8
0
  6
Continuous
 62
     0
  0
HATCH
  5
1F0
100
AcDbEntity
  8
0
  6
Continuous
 62
     0
100
AcDbHatch
 10
0.0
 20
0.0
 30
0.0
210
0.0
220
0.0
230
1.0
  2
SOLID
 70
     1
 71
     1
 91
        1
 92
        3
 72
     0
 73
     1
 93
        3
 10
3.0000000000000004
 20
1.5
 10
2.9766000000000004
 20
1.3200000000000001
 10
3.0234000000000005
 20
1.3200000000000001
 97
        1
330
1F1
 75
     0
 76
     0
 98
        0
  0
POLYLINE
  5
1F7
102
{ACAD_REACTORS
330
1F6
102
}
100
AcDbEntity
  8
0
370
     0
  6
Continuous
 62
     0
100
AcDb2dPolyline
 66
     1
 10
0.0
 20
0.0
 30
0.0
 70
   129
  0
VERTEX
  5
1F8
100
AcDbEntity
  8
0
  6
Continuous
 62
     0
100
AcDbVertex
100
AcDb2dVertex
 10
3.0
 20
-1.5
 30
0.0
  0
VERTEX
  5
1F9
100
AcDbEntity
  8
0
  6
Continuous
 62
     0
100
AcDbVertex
100
AcDb2dVertex
 10
3.0234
 20
-1.32
 30
0.0
  0
VERTEX
  5
1FA
100
AcDbEntity
  8
0
  6
Continuous
 62
     0
100
AcDbVertex
100
AcDb2dVertex
 10
2.9766
 20
-1.32
 30
0.0
  0
SEQEND
  5
1FB
100
AcDbEntity
  8
0
  6
Continuous
 62
     0
  0
HATCH
  5
1F6
100
AcDbEntity
  8
0
  6
Continuous
 62
     0
100
AcDbHatch
 10
0.0
 20
0.0
 30
0.0
210
0.0
220
0.0
230
1.0
  2
SOLID
 70
     1
 71
     1
 91
        1
 92
        3
 72
     0
 73
     1
 93
        3
 10
3.0
 20
-1.5
 10
3.0234000000000001
 20
-1.3200000000000001
 10
2.9765999999999999
 20
-1.3200000000000001
 97
        1
330
1F7
 75
     0
 76
     0
 98
        0
  0
TEXT
  5
1FC
100
AcDbEntity
  8
0
  6
Continuous
 62
     0
100
AcDbText
 10
2.61
 20
-0.09
 30
0.0
 40
0.18
  1
3.00
 72
     5
 11
3.15
 21
-0.09
 31
0.0
100
AcDbText
  0
TEXT
  5
1FD
100
AcDbEntity
  8
0
  6
Continuous
 62
     0
100
AcDbText
 10
3.15
 20
-0.09
 30
0.0
 40
0.18
  1
in
 72
     5
 11
3.39
 21
-0.09
 31
0.0
100
AcDbText
  0
ENDBLK
  5
1FE
100
AcDbEntity
  8
0
100
AcDbBlockEnd
  0
BLOCK
  5
202
100
AcDbEntity
  8
0
100
AcDbBlockBegin
  2
*D8
 70
     1
 10
0.0
 20
0.0
 30
0.0
  3
*D8
  1

  0
LINE
  5
203
100
AcDbEntity
  8
0
370
     0
  6
Continuous
 62
     0
100
AcDbLine
 10
6.6315
 20
0.0
 30
0.0
 11
5.82
 21
0.0
 31
0.0
  0
LINE
  5
204
100
AcDbEntity
  8
0
370
     0
  6
Continuous
 62
     0
100
AcDbLine
 10
6.6315
 20
-1.5
 30
0.0
 11
5.82
 21
-1.5
 31
0.0
  0
POLYLINE
  5
205
100
AcDbEntity
  8
0
370
     0
  6
Continuous
 62
     0
100
AcDb2dPolyline
 66
     1
 10
0.0
 20
0.0
 30
0.0
 70
   128
  0
VERTEX
  5
206
100
AcDbEntity
  8
0
  6
Continuous
 62
     0
100
AcDbVertex
100
AcDb2dVertex
 10
6.0
 20
-0.18
 30
0.0
  0
VERTEX
  5
207
100
AcDbEntity
  8
0
  6
Continuous
 62
     0
100
AcDbVertex
100
AcDb2dVertex
 10
6.0
 20
-0.18
 30
0.0
  0
VERTEX
  5
208
100
AcDbEntity
  8
0
  6
Continuous
 62
     0
100
AcDbVertex
100
AcDb2dVertex
 10
6.0
 20
-0.18
 30
0.0
  0
VERTEX
  5
209
100
AcDbEntity
  8
0
  6
Continuous
 62
     0
100
AcDbVertex
100
AcDb2dVertex
 10
6.0
 20
-0.57
 30
0.0
  0
SEQEND
  5
20A
100
AcDbEntity
  8
0
  6
Continuous
 62
     0
  0
POLYLINE
  5
20B
100
AcDbEntity
  8
0
370
     0
  6
Continuous
 62
     0
100
AcDb2dPolyline
 66
     1
 10
0.0
 20
0.0
 30
0.0
 70
   128
  0
VERTEX
  5
20C
100
AcDbEntity
  8
0
  6
Continuous
 62
     0
100
AcDbVertex
100
AcDb2dVertex
 10
6.0
 20
-1.32
 30
0.0
  0
VERTEX
  5
20D
100
AcDbEntity
  8
0
  6
Continuous
 62
     0
100
AcDbVertex
100
AcDb2dVertex
 10
6.0
 20
-1.32
 30
0.0
  0
VERTEX
  5
20E
100
AcDbEntity
  8
0
  6
Continuous
 62
     0
100
AcDbVertex
100
AcDb2dVertex
 10
6.0
 20
-1.32
 30
0.0
  0
VERTEX
  5
20F
100
AcDbEntity
  8
0
  6
Continuous
 62
     0
100
AcDbVertex
100
AcDb2dVertex
 10
6.0
 20
-0.93
 30
0.0
  0
SEQEND
  5
210
100
AcDbEntity
  8
0
  6
Continuous
 62
     0
  0
POLYLINE
  5
212
102
{ACAD_REACTORS
330
211
102
}
100
AcDbEntity
  8
0
370
     0
  6
Continuous
 62
     0
100
AcDb2dPolyline
 66
     1
 10
0.0
 20
0.0
 30
0.0
 70
   129
  0
VERTEX
  5
213
100
AcDbEntity
  8
0
  6
Continuous
 62
     0
100
AcDbVertex
100
AcDb2dVertex
 10
6.0
 20
0.0
 30
0.0
  0
VERTEX
  5
214
100
AcDbEntity
  8
0
  6
Continuous
 62
     0
100
AcDbVertex
100
AcDb2dVertex
 10
5.9766
 20
-0.18
 30
0.0
  0
VERTEX
  5
215
100
AcDbEntity
  8
0
  6
Continuous
 62
     0
100
AcDbVertex
100
AcDb2dVertex
 10
6.0234
 20
-0.18
 30
0.0
  0
SEQEND
  5
216
100
AcDbEntity
  8
0
  6
Continuous
 62
     0
  0
HATCH
  5
211
100
AcDbEntity
  8
0
  6
Continuous
 62
     0
100
AcDbHatch
 10
0.0
 20
0.0
 30
0.0
210
0.0
220
0.0
230
1.0
  2
SOLID
 70
     1
 71
     1
 91
        1
 92
        3
 72
     0
 73
     1
 93
        3
 10
6.0
 20
0.0
 10
5.9766000000000004
 20
-0.18
 10
6.0233999999999996
 20
-0.18
 97
        1
330
212
 75
     0
 76
     0
 98
        0
  0
POLYLINE
  5
218
102
{ACAD_REACTORS
330
217
102
}
100
AcDbEntity
  8
0
370
     0
  6
Continuous
 62
     0
100
AcDb2dPolyline
 66
     1
 10
0.0
 20
0.0
 30
0.0
 70
   129
  0
VERTEX
  5
219
100
AcDbEntity
  8
0
  6
Continuous
 62
     0
100
AcDbVertex
100
AcDb2dVertex
 10
6.0
 20
-1.5
 30
0.0
  0
VERTEX
  5
21A
100
AcDbEntity
  8
0
  6
Continuous
 62
     0
100
AcDbVertex
100
AcDb2dVertex
 10
6.0234
 20
-1.32
 30
0.0
  0
VERTEX
  5
21B
100
AcDbEntity
  8
0
  6
Continuous
 62
     0
100
AcDbVertex
100
AcDb2dVertex
 10
5.9766
 20
-1.32
 30
0.0
  0
SEQEND
  5
21C
100
AcDbEntity
  8
0
  6
Continuous
 62
     0
  0
HATCH
  5
217
100
AcDbEntity
  8
0
  6
Continuous
 62
     0
100
AcDbHatch
 10
0.0
 20
0.0
 30
0.0
210
0.0
220
0.0
230
1.0
  2
SOLID
 70
     1
 71
     1
 91
        1
 92
        3
 72
     0
 73
     1
 93
        3
 10
6.0
 20
-1.5
 10
6.0233999999999996
 20
-1.3200000000000001
 10
5.9766000000000004
 20
-1.3200000000000001
 97
        1
330
218
 75
     0
 76
     0
 98
        0
  0
TEXT
  5
21D
100
AcDbEntity
  8
0
  6
Continuous
 62
     0
100
AcDbText
 10
5.625
 20
-0.84
 30
0.0
 40
0.18
  1
1.50
 72
     5
 11
6.135
 21
-0.84
 31
0.0
100
AcDbText
  0
TEXT
  5
21E
100
AcDbEntity
  8
0
  6
Continuous
 62
     0
100
AcDbText
 10
6.135
 20
-0.84
 30
0.0
 40
0.18
  1
in
 72
     5
 11
6.375
 21
-0.84
 31
0.0
100
AcDbText
  0
ENDBLK
  5
21F
100
AcDbEntity
  8
0
100
AcDbBlockEnd
  0
BLOCK
  5
223
100
AcDbEntity
  8
0
100
AcDbBlockBegin
  2
*D9
 70
     1
 10
0.0
 20
0.0
 30
0.0
  3
*D9
  1

  0
LINE
  5
224
100
AcDbEntity
  8
0
370
     0
  6
Continuous
 62
     0
100
AcDbLine
 10
14.6315
 20
1.125
 30
0.0
 11
15.68
 21
1.125
 31
0.0
  0
LINE
  5
225
100
AcDbEntity
  8
0
370
     0
  6
Continuous
 62
     0
100
AcDbLine
 10
14.6315
 20
-1.125
 30
0.0
 11
15.68
 21
-1.125
 31
0.0
  0
POLYLINE
  5
226
100
AcDbEntity
  8
0
370
     0
  6
Continuous
 62
     0
100
AcDb2dPolyline
 66
     1
 10
0.0
 20
0.0
 30
0.0
 70
   128
  0
VERTEX
  5
227
100
AcDbEntity
  8
0
  6
Continuous
 62
     0
100
AcDbVertex
100
AcDb2dVertex
 10
15.5
 20
0.945
 30
0.0
  0
VERTEX
  5
228
100
AcDbEntity
  8
0
  6
Continuous
 62
     0
100
AcDbVertex
100
AcDb2dVertex
 10
15.5
 20
0.945
 30
0.0
  0
VERTEX
  5
229
100
AcDbEntity
  8
0
  6
Continuous
 62
     0
100
AcDbVertex
100
AcDb2dVertex
 10
15.5
 20
0.945
 30
0.0
  0
VERTEX
  5
22A
100
AcDbEntity
  8
0
  6
Continuous
 62
     0
100
AcDbVertex
100
AcDb2dVertex
 10
15.5
 20
0.18
 30
0.0
  0
SEQEND
  5
22B
100
AcDbEntity
  8
0
  6
Continuous
 62
     0
  0
POLYLINE
  5
22C
100
AcDbEntity
  8
0
370
     0
  6
Continuous
 62
     0
100
AcDb2dPolyline
 66
     1
 10
0.0
 20
0.0
 30
0.0
 70
   128
  0
VERTEX
  5
22D
100
AcDbEntity
  8
0
  6
Continuous
 62
     0
100
AcDbVertex
100
AcDb2dVertex
 10
15.5
 20
-0.945
 30
0.0
  0
VERTEX
  5
22E
100
AcDbEntity
  8
0
  6
Continuous
 62
     0
100
AcDbVertex
100
AcDb2dVertex
 10
15.5
 20
-0.945
 30
0.0
  0
VERTEX
  5
22F
100
AcDbEntity
  8
0
  6
Continuous
 62
     0
100
AcDbVertex
100
AcDb2dVertex
 10
15.5
 20
-0.945
 30
0.0
  0
VERTEX
  5
230
100
AcDbEntity
  8
0
  6
Continuous
 62
     0
100
AcDbVertex
100
AcDb2dVertex
 10
15.5
 20
-0.18
 30
0.0
  0
SEQEND
  5
231
100
AcDbEntity
  8
0
  6
Continuous
 62
     0
  0
POLYLINE
  5
233
102
{ACAD_REACTORS
330
232
102
}
100
AcDbEntity
  8
0
370
     0
  6
Continuous
 62
     0
100
AcDb2dPolyline
 66
     1
 10
0.0
 20
0.0
 30
0.0
 70
   129
  0
VERTEX
  5
234
100
AcDbEntity
  8
0
  6
Continuous
 62
     0
100
AcDbVertex
100
AcDb2dVertex
 10
15.5
 20
1.125
 30
0.0
  0
VERTEX
  5
235
100
AcDbEntity
  8
0
  6
Continuous
 62
     0
100
AcDbVertex
100
AcDb2dVertex
 10
15.4766
 20
0.945
 30
0.0
  0
VERTEX
  5
236
100
AcDbEntity
  8
0
  6
Continuous
 62
     0
100
AcDbVertex
100
AcDb2dVertex
 10
15.5234
 20
0.945
 30
0.0
  0
SEQEND
  5
237
100
AcDbEntity
  8
0
  6
Continuous
 62
     0
  0
HATCH
  5
232
100
AcDbEntity
  8
0
  6
Continuous
 62
     0
100
AcDbHatch
 10
0.0
 20
0.0
 30
0.0
210
0.0
220
0.0
230
1.0
  2
SOLID
 70
     1
 71
     1
 91
        1
 92
        3
 72
     0
 73
     1
 93
        3
 10
15.499999999999998
 20
1.1250000000000007
 10
15.476599999999998
 20
0.9450000000000007
 10
15.523399999999999
 20
0.9450000000000007
 97
        1
330
233
 75
     0
 76
     0
 98
        0
  0
POLYLINE
  5
239
102
{ACAD_REACTORS
330
238
102
}
100
AcDbEntity
  8
0
370
     0
  6
Continuous
 62
     0
100
AcDb2dPolyline
 66
     1
 10
0.0
 20
0.0
 30
0.0
 70
   129
  0
VERTEX
  5
23A
100
AcDbEntity
  8
0
  6
Continuous
 62
     0
100
AcDbVertex
100
AcDb2dVertex
 10
15.5
 20
-1.125
 30
0.0
  0
VERTEX
  5
23B
100
AcDbEntity
  8
0
  6
Continuous
 62
     0
100
AcDbVertex
100
AcDb2dVertex
 10
15.5234
 20
-0.945
 30
0.0
  0
VERTEX
  5
23C
100
AcDbEntity
  8
0
  6
Continuous
 62
     0
100
AcDbVertex
100
AcDb2dVertex
 10
15.4766
 20
-0.945
 30
0.0
  0
SEQEND
  5
23D
100
AcDbEntity
  8
0
  6
Continuous
 62
     0
  0
HATCH
  5
238
100
AcDbEntity
  8
0
  6
Continuous
 62
     0
100
AcDbHatch
 10
0.0
 20
0.0
 30
0.0
210
0.0
220
0.0
230
1.0
  2
SOLID
 70
     1
 71
     1
 91
        1
 92
        3
 72
     0
 73
     1
 93
        3
 10
15.5
 20
-1.1249999999999993
 10
15.523400000000001
 20
-0.9449999999999994
 10
15.476599999999999
 20
-0.9449999999999994
 97
        1
330
239
 75
     0
 76
     0
 98
        0
  0
TEXT
  5
23E
100
AcDbEntity
  8
0
  6
Continuous
 62
     0
100
AcDbText
 10
15.08
 20
-0.09
 30
0.0
 40
0.18
  1
2.25
 72
     5
 11
15.68
 21
-0.09
 31
0.0
100
AcDbText
  0
TEXT
  5
23F
100
AcDbEntity
  8
0
  6
Continuous
 62
     0
100
AcDbText
 10
15.68
 20
-0.09
 30
0.0
 40
0.18
  1
in
 72
     5
 11
15.92
 21
-0.09
 31
0.0
100
AcDbText
  0
ENDBLK
  5
240
100
AcDbEntity
  8
0
100
AcDbBlockEnd
  0
ENDSEC
  0
SECTION
  2
ENTITIES
  0
DIMENSION
  5
5E
100
AcDbEntity
  8
1
  6
Continuous
 62
     0
100
AcDbDimension
  2
*D0
 10
11.75
 20
1.978252
 30
0.0
 11
13.131667
 21
1.978252
 31
0.0
 70
     1
 71
     5
 72
     1
 41
1.0
 42
0.0
  3
DIMSTYLE1
100
AcDbAlignedDimension
 13
11.25
 23
1.5
 33
0.0
 14
11.75
 24
1.5
 34
0.0
1001
ACAD
1000
DSTYLE
1002
{
1070
     3
1000
<>in
1002
}
  0
TEXT
  5
5F
100
AcDbEntity
  8
1
  6
Continuous
 62
     7
100
AcDbText
 10
-0.458333
 20
3.71236
 30
0.0
 40
1.0
  1
(DeWalt 24V hammerdrill motor)
 72
     5
 11
13.458334
 21
3.71236
 31
0.0
100
AcDbText
1001
TCAD
1000
TCW40_TEXT
1002
{
1000
txt.shx
1070
     0
1070
  1025
1002
}
  0
TEXT
  5
60
100
AcDbEntity
  8
1
  6
Continuous
 62
     7
100
AcDbText
 10
1.111131
 20
4.954306
 30
0.0
 40
2.0
  1
Dustin Motor
 72
     5
 11
12.444464
 21
4.954306
 31
0.0
100
AcDbText
1001
TCAD
1000
TCW40_TEXT
1002
{
1000
txt.shx
1070
     0
1070
  1025
1002
}
  0
DIMENSION
  5
82
100
AcDbEntity
  8
1
  6
Continuous
 62
     0
100
AcDbDimension
  2
*D1
 10
6.694
 20
2.015185
 30
0.0
 11
5.2915
 21
2.015185
 31
0.0
 71
     5
 72
     1
 41
1.0
 42
0.0
  3
DIMSTYLE2
100
AcDbAlignedDimension
 13
7.25
 23
1.5
 33
0.0
 14
6.694
 24
0.4
 34
0.0
100
AcDbRotatedDimension
1001
ACAD
1000
DSTYLE
1002
{
1070
     3
1000
<>in
1002
}
  0
TEXT
  5
83
100
AcDbEntity
  8
1
  6
Continuous
 62
     7
100
AcDbText
 10
8.020857
 20
-2.833336
 30
0.0
 40
0.25
  1
can be adjusted to 4 1/2"
 72
     5
 11
11.041691
 21
-2.833336
 31
0.0
100
AcDbText
1001
TCAD
1000
TCW40_TEXT
1002
{
1000
txt.shx
1070
     0
1070
  1025
1002
}
  0
LINE
  5
84
100
AcDbEntity
  8
1
  6
Continuous
 62
    15
100
AcDbLine
 10
11.25
 20
-1.125
 30
0.0
 11
9.694
 21
-1.125
 31
0.0
  0
LINE
  5
85
100
AcDbEntity
  8
1
  6
Continuous
 62
    15
100
AcDbLine
 10
11.25
 20
1.125
 30
0.0
 11
9.694
 21
1.125
 31
0.0
  0
DIMENSION
  5
A5
100
AcDbEntity
  8
1
  6
Continuous
 62
     0
100
AcDbDimension
  2
*D2
 10
14.569
 20
2.753735
 30
0.0
 11
10.6315
 21
2.753735
 31
0.0
 71
     5
 72
     1
 41
1.0
 42
0.0
  3
DIMSTYLE3
100
AcDbAlignedDimension
 13
6.694
 23
0.4
 33
0.0
 14
14.569
 24
1.125
 34
0.0
100
AcDbRotatedDimension
1001
ACAD
1000
DSTYLE
1002
{
1070
     3
1000
<>in
1002
}
  0
DIMENSION
  5
C5
100
AcDbEntity
  8
1
  6
Continuous
 62
     0
100
AcDbDimension
  2
*D3
 10
2.25
 20
-2.931709
 30
0.0
 11
0.0
 21
-2.931709
 31
0.0
 70
     1
 71
     5
 72
     1
 41
1.0
 42
0.0
  3
DIMSTYLE5
100
AcDbAlignedDimension
 13
-2.25
 23
-1.5
 33
0.0
 14
2.25
 24
-1.5
 34
0.0
1001
ACAD
1000
DSTYLE
1002
{
1070
     3
1000
<>in
1002
}
  0
LINE
  5
C6
100
AcDbEntity
  8
1
  6
DASHED
 62
    84
100
AcDbLine
 10
11.6
 20
-1.25
 30
0.0
 11
11.6
 21
-1.5
 31
0.0
  0
LINE
  5
C7
100
AcDbEntity
  8
1
  6
DASHED
 62
    84
100
AcDbLine
 10
11.4
 20
-1.25
 30
0.0
 11
11.4
 21
-1.5
 31
0.0
  0
LINE
  5
C8
100
AcDbEntity
  8
1
  6
DASHED
 62
    84
100
AcDbLine
 10
7.6
 20
-1.25
 30
0.0
 11
7.6
 21
-1.5
 31
0.0
  0
LINE
  5
C9
100
AcDbEntity
  8
1
  6
DASHED
 62
    84
100
AcDbLine
 10
7.4
 20
-1.25
 30
0.0
 11
7.4
 21
-1.5
 31
0.0
  0
DIMENSION
  5
E9
100
AcDbEntity
  8
1
  6
Continuous
 62
     0
100
AcDbDimension
  2
*D4
 10
11.5
 20
-2.24972
 30
0.0
 11
9.5
 21
-2.24972
 31
0.0
 70
     1
 71
     5
 72
     1
 41
1.0
 42
0.0
  3
DIMSTYLE6
100
AcDbAlignedDimension
 13
7.5
 23
-1.5
 33
0.0
 14
11.5
 24
-1.5
 34
0.0
1001
ACAD
1000
DSTYLE
1002
{
1070
     3
1000
<>in
1002
}
  0
LINE
  5
EA
100
AcDbEntity
  8
1
  6
Continuous
 62
     1
100
AcDbLine
 10
13.569
 20
1.125
 30
0.0
 11
13.069
 21
1.125
 31
0.0
  0
LINE
  5
EB
100
AcDbEntity
  8
1
  6
Continuous
 62
   252
100
AcDbLine
 10
13.069
 20
-1.125
 30
0.0
 11
12.8815
 21
-1.125
 31
0.0
  0
LINE
  5
EC
100
AcDbEntity
  8
1
  6
Continuous
 62
   252
100
AcDbLine
 10
13.069
 20
1.125
 30
0.0
 11
12.8815
 21
1.125
 31
0.0
  0
LINE
  5
ED
100
AcDbEntity
  8
1
  6
Continuous
 62
   252
100
AcDbLine
 10
12.8815
 20
1.125
 30
0.0
 11
12.8815
 21
-1.125
 31
0.0
  0
LINE
  5
EE
100
AcDbEntity
  8
1
  6
Continuous
 62
   252
100
AcDbLine
 10
14.069
 20
-0.625
 30
0.0
 11
13.569
 21
-0.625
 31
0.0
  0
LINE
  5
EF
100
AcDbEntity
  8
1
  6
Continuous
 62
   252
100
AcDbLine
 10
14.069
 20
0.625
 30
0.0
 11
13.569
 21
0.625
 31
0.0
  0
LINE
  5
F0
100
AcDbEntity
  8
1
  6
Continuous
 62
   252
100
AcDbLine
 10
14.069
 20
1.125
 30
0.0
 11
13.569
 21
1.125
 31
0.0
  0
LINE
  5
F1
100
AcDbEntity
  8
1
  6
Continuous
 62
     1
100
AcDbLine
 10
13.569
 20
-1.125
 30
0.0
 11
13.069
 21
-1.125
 31
0.0
  0
LINE
  5
F2
100
AcDbEntity
  8
1
  6
Continuous
 62
   252
100
AcDbLine
 10
14.069
 20
-1.125
 30
0.0
 11
13.569
 21
-1.125
 31
0.0
  0
LINE
  5
F3
100
AcDbEntity
  8
1
  6
Continuous
 62
     1
100
AcDbLine
 10
14.569
 20
-1.125
 30
0.0
 11
14.069
 21
-1.125
 31
0.0
  0
LINE
  5
F4
100
AcDbEntity
  8
1
  6
Continuous
 62
     1
100
AcDbLine
 10
14.569
 20
1.125
 30
0.0
 11
14.069
 21
1.125
 31
0.0
  0
LINE
  5
F5
100
AcDbEntity
  8
1
  6
Continuous
 62
     1
100
AcDbLine
 10
13.069
 20
1.125
 30
0.0
 11
13.069
 21
-1.125
 31
0.0
  0
LINE
  5
F6
100
AcDbEntity
  8
1
  6
Continuous
 62
     1
100
AcDbLine
 10
13.569
 20
1.125
 30
0.0
 11
13.569
 21
-1.125
 31
0.0
  0
LINE
  5
F7
100
AcDbEntity
  8
1
  6
Continuous
 62
     1
100
AcDbLine
 10
14.069
 20
1.125
 30
0.0
 11
14.069
 21
-1.125
 31
0.0
  0
LINE
  5
F8
100
AcDbEntity
  8
1
  6
Continuous
 62
    15
100
AcDbLine
 10
9.694
 20
1.125
 30
0.0
 11
9.694
 21
-1.125
 31
0.0
  0
LINE
  5
F9
100
AcDbEntity
  8
1
  6
Continuous
 62
     6
100
AcDbLine
 10
9.694
 20
-1.125
 30
0.0
 11
7.75
 21
-1.125
 31
0.0
  0
LINE
  5
FA
100
AcDbEntity
  8
1
  6
Continuous
 62
     6
100
AcDbLine
 10
9.694
 20
1.125
 30
0.0
 11
7.75
 21
1.125
 31
0.0
  0
LINE
  5
FB
100
AcDbEntity
  8
1
  6
Continuous
 62
     1
100
AcDbLine
 10
14.569
 20
1.125
 30
0.0
 11
14.569
 21
-1.125
 31
0.0
  0
LINE
  5
FC
100
AcDbEntity
  8
1
  6
Continuous
 62
    15
100
AcDbLine
 10
12.8815
 20
-1.125
 30
0.0
 11
11.75
 21
-1.125
 31
0.0
  0
LINE
  5
FD
100
AcDbEntity
  8
1
  6
Continuous
 62
    15
100
AcDbLine
 10
12.8815
 20
1.125
 30
0.0
 11
11.75
 21
1.125
 31
0.0
  0
LINE
  5
FE
100
AcDbEntity
  8
1
  6
Continuous
 62
     5
100
AcDbLine
 10
6.906
 20
1.253662
 30
0.0
 11
6.906
 21
-1.284694
 31
0.0
  0
LINE
  5
FF
100
AcDbEntity
  8
1
  6
Continuous
 62
     5
100
AcDbLine
 10
7.094
 20
-1.284694
 30
0.0
 11
6.906
 21
-1.284694
 31
0.0
  0
LINE
  5
100
100
AcDbEntity
  8
1
  6
Continuous
 62
     5
100
AcDbLine
 10
7.094
 20
1.253662
 30
0.0
 11
6.906
 21
1.253662
 31
0.0
  0
LINE
  5
101
100
AcDbEntity
  8
1
  6
Continuous
 62
     1
100
AcDbLine
 10
6.694
 20
0.4
 30
0.0
 11
6.694
 21
-0.4
 31
0.0
  0
LINE
  5
102
100
AcDbEntity
  8
1
  6
Continuous
 62
     1
100
AcDbLine
 10
6.906
 20
0.4
 30
0.0
 11
6.694
 21
0.4
 31
0.0
  0
LINE
  5
103
100
AcDbEntity
  8
1
  6
Continuous
 62
     1
100
AcDbLine
 10
6.694
 20
-0.4
 30
0.0
 11
6.906
 21
-0.4
 31
0.0
  0
LINE
  5
104
100
AcDbEntity
  8
1
  6
Continuous
 62
     5
100
AcDbLine
 10
7.094
 20
1.253662
 30
0.0
 11
7.094
 21
-1.284694
 31
0.0
  0
LINE
  5
105
100
AcDbEntity
  8
1
  6
Continuous
 62
     1
100
AcDbLine
 10
7.25
 20
0.875
 30
0.0
 11
7.094
 21
0.875
 31
0.0
  0
LINE
  5
106
100
AcDbEntity
  8
1
  6
Continuous
 62
     1
100
AcDbLine
 10
7.25
 20
-0.875
 30
0.0
 11
7.25
 21
0.875
 31
0.0
  0
LINE
  5
107
100
AcDbEntity
  8
1
  6
Continuous
 62
     1
100
AcDbLine
 10
7.094
 20
-0.875
 30
0.0
 11
7.25
 21
-0.875
 31
0.0
  0
ARC
  5
108
100
AcDbEntity
  8
1
  6
Continuous
 62
     1
100
AcDbCircle
 10
0.0
 20
0.0
 30
0.0
 40
0.875
100
AcDbArc
 50
-103.39845
 51
43.398452
  0
ARC
  5
109
100
AcDbEntity
  8
1
  6
Continuous
 62
     1
100
AcDbCircle
 10
0.0
 20
0.0
 30
0.0
 40
0.875
100
AcDbArc
 50
76.601548
 51
223.398457
  0
CIRCLE
  5
10A
100
AcDbEntity
  8
1
  6
Continuous
 62
     1
100
AcDbCircle
 10
0.0
 20
0.0
 30
0.0
 40
0.4
  0
LINE
  5
10B
100
AcDbEntity
  8
1
  6
Continuous
 62
    84
100
AcDbLine
 10
11.75
 20
-1.25
 30
0.0
 11
11.25
 21
-1.25
 31
0.0
  0
LINE
  5
10C
100
AcDbEntity
  8
1
  6
Continuous
 62
    84
100
AcDbLine
 10
11.75
 20
-0.5
 30
0.0
 11
11.25
 21
-0.5
 31
0.0
  0
LINE
  5
10D
100
AcDbEntity
  8
1
  6
Continuous
 62
    84
100
AcDbLine
 10
11.75
 20
0.275
 30
0.0
 11
11.25
 21
0.275
 31
0.0
  0
LINE
  5
10E
100
AcDbEntity
  8
1
  6
Continuous
 62
    84
100
AcDbLine
 10
11.75
 20
0.025
 30
0.0
 11
11.75
 21
1.5
 31
0.0
  0
LINE
  5
10F
100
AcDbEntity
  8
1
  6
Continuous
 62
    84
100
AcDbLine
 10
11.25
 20
-0.025
 30
0.0
 11
11.25
 21
-1.5
 31
0.0
  0
LINE
  5
110
100
AcDbEntity
  8
1
  6
Continuous
 62
    84
100
AcDbLine
 10
11.75
 20
0.025
 30
0.0
 11
11.25
 21
0.025
 31
0.0
  0
LINE
  5
111
100
AcDbEntity
  8
1
  6
Continuous
 62
    84
100
AcDbLine
 10
11.75
 20
-0.025
 30
0.0
 11
11.25
 21
-0.025
 31
0.0
  0
LINE
  5
112
100
AcDbEntity
  8
1
  6
Continuous
 62
    84
100
AcDbLine
 10
11.25
 20
1.5
 30
0.0
 11
11.25
 21
0.025
 31
0.0
  0
LINE
  5
113
100
AcDbEntity
  8
1
  6
Continuous
 62
    84
100
AcDbLine
 10
11.75
 20
1.5
 30
0.0
 11
11.25
 21
1.5
 31
0.0
  0
LINE
  5
114
100
AcDbEntity
  8
1
  6
Continuous
 62
    84
100
AcDbLine
 10
11.75
 20
-1.5
 30
0.0
 11
11.75
 21
-0.025
 31
0.0
  0
LINE
  5
115
100
AcDbEntity
  8
1
  6
Continuous
 62
    84
100
AcDbLine
 10
11.25
 20
-1.5
 30
0.0
 11
11.75
 21
-1.5
 31
0.0
  0
LINE
  5
116
100
AcDbEntity
  8
1
  6
Continuous
 62
    84
100
AcDbLine
 10
7.75
 20
-1.25
 30
0.0
 11
7.25
 21
-1.25
 31
0.0
  0
LINE
  5
117
100
AcDbEntity
  8
1
  6
Continuous
 62
    84
100
AcDbLine
 10
7.75
 20
-0.5
 30
0.0
 11
7.25
 21
-0.5
 31
0.0
  0
LINE
  5
118
100
AcDbEntity
  8
1
  6
Continuous
 62
    84
100
AcDbLine
 10
7.75
 20
0.275
 30
0.0
 11
7.25
 21
0.275
 31
0.0
  0
LINE
  5
119
100
AcDbEntity
  8
1
  6
Continuous
 62
    84
100
AcDbLine
 10
7.75
 20
0.025
 30
0.0
 11
7.75
 21
1.5
 31
0.0
  0
LINE
  5
11A
100
AcDbEntity
  8
1
  6
Continuous
 62
    84
100
AcDbLine
 10
7.25
 20
-0.025
 30
0.0
 11
7.25
 21
-1.5
 31
0.0
  0
LINE
  5
11B
100
AcDbEntity
  8
1
  6
Continuous
 62
    84
100
AcDbLine
 10
7.75
 20
0.025
 30
0.0
 11
7.25
 21
0.025
 31
0.0
  0
LINE
  5
11C
100
AcDbEntity
  8
1
  6
Continuous
 62
    84
100
AcDbLine
 10
7.75
 20
-0.025
 30
0.0
 11
7.25
 21
-0.025
 31
0.0
  0
LINE
  5
11D
100
AcDbEntity
  8
1
  6
Continuous
 62
    84
100
AcDbLine
 10
7.25
 20
1.5
 30
0.0
 11
7.25
 21
0.025
 31
0.0
  0
LINE
  5
11E
100
AcDbEntity
  8
1
  6
Continuous
 62
    84
100
AcDbLine
 10
7.75
 20
1.5
 30
0.0
 11
7.25
 21
1.5
 31
0.0
  0
LINE
  5
11F
100
AcDbEntity
  8
1
  6
Continuous
 62
    84
100
AcDbLine
 10
7.75
 20
-1.5
 30
0.0
 11
7.75
 21
-0.025
 31
0.0
  0
LINE
  5
120
100
AcDbEntity
  8
1
  6
Continuous
 62
    84
100
AcDbLine
 10
7.25
 20
-1.5
 30
0.0
 11
7.75
 21
-1.5
 31
0.0
  0
DIMENSION
  5
142
100
AcDbEntity
  8
1
  6
Continuous
 62
     0
100
AcDbDimension
  2
*D5
 10
-1.8375
 20
-0.91739
 30
0.0
 11
-0.455833
 21
-0.91739
 31
0.0
 70
     1
 71
     5
 72
     1
 41
1.0
 42
0.0
  3
DIMSTYLE8
100
AcDbAlignedDimension
 13
-2.0375
 23
-1.25
 33
0.0
 14
-1.8375
 24
-1.25
 34
0.0
1001
ACAD
1000
DSTYLE
1002
{
1070
     3
1000
<>in
1002
}
  0
DIMENSION
  5
162
100
AcDbEntity
  8
1
  6
Continuous
 62
     0
100
AcDbDimension
  2
*D6
 10
1.9375
 20
-2.054692
 30
0.0
 11
0.0
 21
-2.054692
 31
0.0
 70
     1
 71
     5
 72
     1
 41
1.0
 42
0.0
  3
DIMSTYLE9
100
AcDbAlignedDimension
 13
-1.9375
 23
-1.5
 33
0.0
 14
1.9375
 24
-1.5
 34
0.0
1001
ACAD
1000
DSTYLE
1002
{
1070
     3
1000
<>in
1002
}
  0
LINE
  5
163
100
AcDbEntity
  8
1
  6
DASHED
 62
     1
100
AcDbLine
 10
2.0375
 20
-1.5
 30
0.0
 11
2.0375
 21
-1.25
 31
0.0
  0
LINE
  5
164
100
AcDbEntity
  8
1
  6
DASHED
 62
     1
100
AcDbLine
 10
1.8375
 20
-1.5
 30
0.0
 11
1.8375
 21
-1.25
 31
0.0
  0
LINE
  5
165
100
AcDbEntity
  8
1
  6
DASHED
 62
     1
100
AcDbLine
 10
-1.8375
 20
-1.5
 30
0.0
 11
-1.8375
 21
-1.25
 31
0.0
  0
LINE
  5
166
100
AcDbEntity
  8
1
  6
DASHED
 62
     1
100
AcDbLine
 10
-2.0375
 20
-1.5
 30
0.0
 11
-2.0375
 21
-1.25
 31
0.0
  0
CIRCLE
  5
167
100
AcDbEntity
  8
1
  6
Continuous
 62
     1
100
AcDbCircle
 10
0.0
 20
0.0
 30
0.0
 40
0.2
  0
ARC
  5
168
100
AcDbEntity
  8
1
  6
Continuous
 62
    84
100
AcDbCircle
 10
0.0
 20
0.0
 30
0.0
 40
0.97
100
AcDbArc
 50
-105.06447
 51
-103.217204
  0
ARC
  5
169
100
AcDbEntity
  8
1
  6
Continuous
 62
    84
100
AcDbCircle
 10
0.0
 20
0.0
 30
0.0
 40
0.97
100
AcDbArc
 50
-136.782789
 51
-134.935523
  0
ARC
  5
16A
100
AcDbEntity
  8
1
  6
Continuous
 62
    84
100
AcDbCircle
 10
0.0
 20
0.0
 30
0.0
 40
0.97
100
AcDbArc
 50
74.935529
 51
76.782794
  0
ARC
  5
16B
100
AcDbEntity
  8
1
  6
Continuous
 62
    84
100
AcDbCircle
 10
0.0
 20
0.0
 30
0.0
 40
0.97
100
AcDbArc
 50
43.217206
 51
45.064471
  0
ARC
  5
16C
100
AcDbEntity
  8
1
  6
Continuous
 62
    84
100
AcDbCircle
 10
0.0
 20
0.0
 30
0.0
 40
1.0625
100
AcDbArc
 50
80.010113
 51
99.989885
  0
LINE
  5
16D
100
AcDbEntity
  8
1
  6
Continuous
 62
    84
100
AcDbLine
 10
-0.2025
 20
0.968643
 30
0.0
 11
-0.2025
 21
1.024724
 31
0.0
  0
LINE
  5
16E
100
AcDbEntity
  8
1
  6
Continuous
 62
    84
100
AcDbLine
 10
0.2025
 20
0.968643
 30
0.0
 11
0.2025
 21
1.024724
 31
0.0
  0
ARC
  5
16F
100
AcDbEntity
  8
1
  6
Continuous
 62
    84
100
AcDbCircle
 10
0.0
 20
0.0
 30
0.0
 40
1.0625
100
AcDbArc
 50
140.010122
 51
159.989887
  0
LINE
  5
170
100
AcDbEntity
  8
1
  6
Continuous
 62
    84
100
AcDbLine
 10
-0.940119
 20
0.308951
 30
0.0
 11
-0.988687
 21
0.336992
 31
0.0
  0
LINE
  5
171
100
AcDbEntity
  8
1
  6
Continuous
 62
    84
100
AcDbLine
 10
-0.737619
 20
0.659692
 30
0.0
 11
-0.786187
 21
0.687732
 31
0.0
  0
ARC
  5
172
100
AcDbEntity
  8
1
  6
Continuous
 62
    84
100
AcDbCircle
 10
0.0
 20
0.0
 30
0.0
 40
1.0625
100
AcDbArc
 50
-159.989887
 51
-140.010122
  0
LINE
  5
173
100
AcDbEntity
  8
1
  6
Continuous
 62
    84
100
AcDbLine
 10
-0.737619
 20
-0.659692
 30
0.0
 11
-0.786187
 21
-0.687732
 31
0.0
  0
LINE
  5
174
100
AcDbEntity
  8
1
  6
Continuous
 62
    84
100
AcDbLine
 10
-0.940119
 20
-0.308951
 30
0.0
 11
-0.988687
 21
-0.336992
 31
0.0
  0
ARC
  5
175
100
AcDbEntity
  8
1
  6
Continuous
 62
    84
100
AcDbCircle
 10
0.0
 20
0.0
 30
0.0
 40
1.0625
100
AcDbArc
 50
-99.989885
 51
-80.010113
  0
LINE
  5
176
100
AcDbEntity
  8
1
  6
Continuous
 62
    84
100
AcDbLine
 10
0.2025
 20
-0.968643
 30
0.0
 11
0.2025
 21
-1.024724
 31
0.0
  0
LINE
  5
177
100
AcDbEntity
  8
1
  6
Continuous
 62
    84
100
AcDbLine
 10
-0.2025
 20
-0.968643
 30
0.0
 11
-0.2025
 21
-1.024724
 31
0.0
  0
ARC
  5
178
100
AcDbEntity
  8
1
  6
Continuous
 62
    84
100
AcDbCircle
 10
0.0
 20
0.0
 30
0.0
 40
1.0625
100
AcDbArc
 50
-39.989883
 51
-20.010117
  0
LINE
  5
179
100
AcDbEntity
  8
1
  6
Continuous
 62
    84
100
AcDbLine
 10
0.940119
 20
-0.308951
 30
0.0
 11
0.988687
 21
-0.336992
 31
0.0
  0
LINE
  5
17A
100
AcDbEntity
  8
1
  6
Continuous
 62
    84
100
AcDbLine
 10
0.737619
 20
-0.659692
 30
0.0
 11
0.786187
 21
-0.687732
 31
0.0
  0
ARC
  5
17B
100
AcDbEntity
  8
1
  6
Continuous
 62
    84
100
AcDbCircle
 10
0.0
 20
0.0
 30
0.0
 40
1.0625
100
AcDbArc
 50
20.010117
 51
39.989883
  0
LINE
  5
17C
100
AcDbEntity
  8
1
  6
Continuous
 62
    84
100
AcDbLine
 10
0.737619
 20
0.659692
 30
0.0
 11
0.786187
 21
0.687732
 31
0.0
  0
LINE
  5
17D
100
AcDbEntity
  8
1
  6
Continuous
 62
    84
100
AcDbLine
 10
0.940119
 20
0.308951
 30
0.0
 11
0.988687
 21
0.336992
 31
0.0
  0
LINE
  5
17E
100
AcDbEntity
  8
1
  6
Continuous
 62
    84
100
AcDbLine
 10
1.625
 20
0.025
 30
0.0
 11
1.028326
 21
0.025
 31
0.0
  0
LINE
  5
17F
100
AcDbEntity
  8
1
  6
Continuous
 62
    84
100
AcDbLine
 10
1.625
 20
-0.025
 30
0.0
 11
1.028326
 21
-0.025
 31
0.0
  0
LINE
  5
180
100
AcDbEntity
  8
1
  6
Continuous
 62
    84
100
AcDbLine
 10
-1.028326
 20
0.025
 30
0.0
 11
-1.625
 21
0.025
 31
0.0
  0
LINE
  5
181
100
AcDbEntity
  8
1
  6
Continuous
 62
    84
100
AcDbLine
 10
-1.028326
 20
-0.025
 30
0.0
 11
-1.625
 21
-0.025
 31
0.0
  0
LINE
  5
182
100
AcDbEntity
  8
1
  6
Continuous
 62
    84
100
AcDbLine
 10
-1.5
 20
-0.5
 30
0.0
 11
-1.565
 21
-0.5
 31
0.0
  0
CIRCLE
  5
183
100
AcDbEntity
  8
1
  6
Continuous
 62
    84
100
AcDbCircle
 10
-0.25
 20
1.31902
 30
0.0
 40
0.09
  0
LINE
  5
184
100
AcDbEntity
  8
1
  6
Continuous
 62
     5
100
AcDbLine
 10
0.838656
 20
0.952595
 30
0.0
 11
0.611806
 21
0.55968
 31
0.0
  0
LINE
  5
185
100
AcDbEntity
  8
1
  6
Continuous
 62
     5
100
AcDbLine
 10
0.405644
 20
1.202595
 30
0.0
 11
0.178794
 21
0.80968
 31
0.0
  0
LINE
  5
186
100
AcDbEntity
  8
1
  6
Continuous
 62
     5
100
AcDbLine
 10
-0.178744
 20
-0.809593
 30
0.0
 11
-0.405644
 21
-1.202595
 31
0.0
  0
LINE
  5
187
100
AcDbEntity
  8
1
  6
Continuous
 62
     5
100
AcDbLine
 10
-0.611756
 20
-0.559593
 30
0.0
 11
-0.838656
 21
-0.952595
 31
0.0
  0
ARC
  5
188
100
AcDbEntity
  8
1
  6
Continuous
 62
     5
100
AcDbCircle
 10
0.0
 20
0.0
 30
0.0
 40
0.4075
100
AcDbArc
 50
120.000003
 51
199.112094
  0
ARC
  5
189
100
AcDbEntity
  8
1
  6
Continuous
 62
     5
100
AcDbCircle
 10
0.0
 20
0.0
 30
0.0
 40
0.4075
100
AcDbArc
 50
-60.000002
 51
120.000003
  0
ARC
  5
18A
100
AcDbEntity
  8
1
  6
Continuous
 62
     5
100
AcDbCircle
 10
0.0
 20
0.0
 30
0.0
 40
0.75
100
AcDbArc
 50
-94.623098
 51
34.6231
  0
ARC
  5
18B
100
AcDbEntity
  8
1
  6
Continuous
 62
     5
100
AcDbCircle
 10
0.0
 20
0.0
 30
0.0
 40
0.75
100
AcDbArc
 50
85.377003
 51
196.404798
  0
ARC
  5
18C
100
AcDbEntity
  8
1
  6
Continuous
 62
     5
100
AcDbCircle
 10
0.0625
 20
0.108253
 30
0.0
 40
1.5
100
AcDbArc
 50
-125.215905
 51
-114.784102
  0
ARC
  5
18D
100
AcDbEntity
  8
1
  6
Continuous
 62
     5
100
AcDbCircle
 10
-0.513897
 20
-1.140095
 30
0.0
 40
0.125
100
AcDbArc
 50
-114.784198
 51
-29.999898
  0
ARC
  5
18E
100
AcDbEntity
  8
1
  6
Continuous
 62
     5
100
AcDbCircle
 10
-0.730403
 20
-1.015095
 30
0.0
 40
0.125
100
AcDbArc
 50
150.000107
 51
234.784095
  0
ARC
  5
18F
100
AcDbEntity
  8
1
  6
Continuous
 62
     5
100
AcDbCircle
 10
-0.07049
 20
-0.872093
 30
0.0
 40
0.125
100
AcDbArc
 50
85.377003
 51
149.999902
  0
ARC
  5
190
100
AcDbEntity
  8
1
  6
Continuous
 62
     5
100
AcDbCircle
 10
-0.72001
 20
-0.497093
 30
0.0
 40
0.125
100
AcDbArc
 50
-30.000001
 51
34.623001
  0
ARC
  5
191
100
AcDbEntity
  8
1
  6
Continuous
 62
     5
100
AcDbCircle
 10
-0.60935
 20
-1.055425
 30
0.0
 40
0.1
100
AcDbArc
 50
120.000003
 51
300.000203
  0
ARC
  5
192
100
AcDbEntity
  8
1
  6
Continuous
 62
     5
100
AcDbCircle
 10
-0.60935
 20
-1.055425
 30
0.0
 40
0.1
100
AcDbArc
 50
-59.999797
 51
64.1125
  0
ARC
  5
193
100
AcDbEntity
  8
1
  6
Continuous
 62
     5
100
AcDbCircle
 10
-0.0625
 20
-0.108253
 30
0.0
 40
1.5
100
AcDbArc
 50
54.7841
 51
65.215903
  0
ARC
  5
194
100
AcDbEntity
  8
1
  6
Continuous
 62
     5
100
AcDbCircle
 10
0.6094
 20
1.055512
 30
0.0
 40
0.1
100
AcDbArc
 50
120.000003
 51
231.431196
  0
ARC
  5
195
100
AcDbEntity
  8
1
  6
Continuous
 62
     5
100
AcDbCircle
 10
0.6094
 20
1.055512
 30
0.0
 40
0.1
100
AcDbArc
 50
-60.000002
 51
120.000003
  0
ARC
  5
196
100
AcDbEntity
  8
1
  6
Continuous
 62
     5
100
AcDbCircle
 10
0.72006
 20
0.49718
 30
0.0
 40
0.125
100
AcDbArc
 50
149.999997
 51
214.623098
  0
ARC
  5
197
100
AcDbEntity
  8
1
  6
Continuous
 62
     5
100
AcDbCircle
 10
0.07054
 20
0.87218
 30
0.0
 40
0.125
100
AcDbArc
 50
-94.623002
 51
-30.000001
  0
ARC
  5
198
100
AcDbEntity
  8
1
  6
Continuous
 62
     5
100
AcDbCircle
 10
0.730403
 20
1.015095
 30
0.0
 40
0.125
100
AcDbArc
 50
-30.000001
 51
54.784001
  0
ARC
  5
199
100
AcDbEntity
  8
1
  6
Continuous
 62
     5
100
AcDbCircle
 10
0.513897
 20
1.140095
 30
0.0
 40
0.125
100
AcDbArc
 50
65.215999
 51
150.000202
  0
ARC
  5
19A
100
AcDbEntity
  8
1
  6
Continuous
 62
     5
100
AcDbCircle
 10
0.6094
 20
1.055512
 30
0.0
 40
0.1
100
AcDbArc
 50
-128.568804
 51
-60.000002
  0
ARC
  5
19B
100
AcDbEntity
  8
1
  6
Continuous
 62
     5
100
AcDbCircle
 10
-0.60935
 20
-1.055425
 30
0.0
 40
0.1
100
AcDbArc
 50
64.1125
 51
120.000003
  0
ARC
  5
19C
100
AcDbEntity
  8
1
  6
Continuous
 62
     5
100
AcDbCircle
 10
0.0
 20
0.0
 30
0.0
 40
0.4075
100
AcDbArc
 50
-160.887906
 51
-60.000002
  0
ARC
  5
19D
100
AcDbEntity
  8
1
  6
Continuous
 62
     5
100
AcDbCircle
 10
0.0
 20
0.0
 30
0.0
 40
0.75
100
AcDbArc
 50
-163.595202
 51
-145.376902
  0
CIRCLE
  5
19E
100
AcDbEntity
  8
1
  6
Continuous
 62
    84
100
AcDbCircle
 10
0.6094
 20
1.055512
 30
0.0
 40
0.0745
  0
CIRCLE
  5
19F
100
AcDbEntity
  8
1
  6
Continuous
 62
    84
100
AcDbCircle
 10
-0.60935
 20
-1.055425
 30
0.0
 40
0.0745
  0
ARC
  5
1A0
100
AcDbEntity
  8
1
  6
Continuous
 62
    84
100
AcDbCircle
 10
-0.1805
 20
1.024724
 30
0.0
 40
0.022
100
AcDbArc
 50
99.989885
 51
179.999991
  0
ARC
  5
1A1
100
AcDbEntity
  8
1
  6
Continuous
 62
    84
100
AcDbCircle
 10
0.1805
 20
1.024724
 30
0.0
 40
0.022
100
AcDbArc
 50
0.0
 51
80.010113
  0
ARC
  5
1A2
100
AcDbEntity
  8
1
  6
Continuous
 62
    84
100
AcDbCircle
 10
0.0
 20
0.0
 30
0.0
 40
0.97
100
AcDbArc
 50
103.217204
 51
136.782789
  0
ARC
  5
1A3
100
AcDbEntity
  8
1
  6
Continuous
 62
    84
100
AcDbCircle
 10
-0.797187
 20
0.66868
 30
0.0
 40
0.022
100
AcDbArc
 50
60.000002
 51
140.010122
  0
ARC
  5
1A4
100
AcDbEntity
  8
1
  6
Continuous
 62
    84
100
AcDbCircle
 10
-0.977687
 20
0.356045
 30
0.0
 40
0.022
100
AcDbArc
 50
159.989887
 51
239.999997
  0
ARC
  5
1A5
100
AcDbEntity
  8
1
  6
Continuous
 62
    84
100
AcDbCircle
 10
0.0
 20
0.0
 30
0.0
 40
0.97
100
AcDbArc
 50
163.217206
 51
175.164094
  0
ARC
  5
1A6
100
AcDbEntity
  8
1
  6
Continuous
 62
    84
100
AcDbCircle
 10
-1.028326
 20
0.087
 30
0.0
 40
0.062
100
AcDbArc
 50
-90.000003
 51
-4.835907
  0
ARC
  5
1A7
100
AcDbEntity
  8
1
  6
Continuous
 62
    84
100
AcDbCircle
 10
-1.028326
 20
-0.087
 30
0.0
 40
0.062
100
AcDbArc
 50
4.835907
 51
90.000003
  0
ARC
  5
1A8
100
AcDbEntity
  8
1
  6
Continuous
 62
    84
100
AcDbCircle
 10
0.0
 20
0.0
 30
0.0
 40
0.97
100
AcDbArc
 50
-175.164094
 51
-163.217206
  0
ARC
  5
1A9
100
AcDbEntity
  8
1
  6
Continuous
 62
    84
100
AcDbCircle
 10
-0.977687
 20
-0.356045
 30
0.0
 40
0.022
100
AcDbArc
 50
120.000003
 51
200.010113
  0
ARC
  5
1AA
100
AcDbEntity
  8
1
  6
Continuous
 62
    84
100
AcDbCircle
 10
-0.797187
 20
-0.66868
 30
0.0
 40
0.022
100
AcDbArc
 50
-140.010122
 51
-60.000002
  0
ARC
  5
1AB
100
AcDbEntity
  8
1
  6
Continuous
 62
    84
100
AcDbCircle
 10
-0.1805
 20
-1.024724
 30
0.0
 40
0.022
100
AcDbArc
 50
180.000005
 51
260.010115
  0
ARC
  5
1AC
100
AcDbEntity
  8
1
  6
Continuous
 62
    84
100
AcDbCircle
 10
0.1805
 20
-1.024724
 30
0.0
 40
0.022
100
AcDbArc
 50
-80.010113
 51
0.0
  0
ARC
  5
1AD
100
AcDbEntity
  8
1
  6
Continuous
 62
    84
100
AcDbCircle
 10
0.0
 20
0.0
 30
0.0
 40
0.97
100
AcDbArc
 50
-76.782794
 51
-43.217206
  0
ARC
  5
1AE
100
AcDbEntity
  8
1
  6
Continuous
 62
    84
100
AcDbCircle
 10
0.797187
 20
-0.66868
 30
0.0
 40
0.022
100
AcDbArc
 50
-120.000003
 51
-39.989883
  0
ARC
  5
1AF
100
AcDbEntity
  8
1
  6
Continuous
 62
    84
100
AcDbCircle
 10
0.977687
 20
-0.356045
 30
0.0
 40
0.022
100
AcDbArc
 50
-20.010117
 51
60.000002
  0
ARC
  5
1B0
100
AcDbEntity
  8
1
  6
Continuous
 62
    84
100
AcDbCircle
 10
0.797187
 20
0.66868
 30
0.0
 40
0.022
100
AcDbArc
 50
39.989883
 51
120.000003
  0
ARC
  5
1B1
100
AcDbEntity
  8
1
  6
Continuous
 62
    84
100
AcDbCircle
 10
0.977687
 20
0.356045
 30
0.0
 40
0.022
100
AcDbArc
 50
-60.000002
 51
20.010117
  0
ARC
  5
1B2
100
AcDbEntity
  8
1
  6
Continuous
 62
    84
100
AcDbCircle
 10
0.0
 20
0.0
 30
0.0
 40
0.97
100
AcDbArc
 50
-16.782794
 51
-4.835907
  0
ARC
  5
1B3
100
AcDbEntity
  8
1
  6
Continuous
 62
    84
100
AcDbCircle
 10
0.0
 20
0.0
 30
0.0
 40
0.97
100
AcDbArc
 50
4.835907
 51
16.782794
  0
ARC
  5
1B4
100
AcDbEntity
  8
1
  6
Continuous
 62
    84
100
AcDbCircle
 10
1.028326
 20
0.087
 30
0.0
 40
0.062
100
AcDbArc
 50
-175.164094
 51
-90.000003
  0
ARC
  5
1B5
100
AcDbEntity
  8
1
  6
Continuous
 62
    84
100
AcDbCircle
 10
1.028326
 20
-0.087
 30
0.0
 40
0.062
100
AcDbArc
 50
90.000003
 51
175.164094
  0
ARC
  5
1B6
100
AcDbEntity
  8
1
  6
Continuous
 62
    84
100
AcDbCircle
 10
-0.2275
 20
0.968643
 30
0.0
 40
0.025
100
AcDbArc
 50
-76.782794
 51
0.0
  0
ARC
  5
1B7
100
AcDbEntity
  8
1
  6
Continuous
 62
    84
100
AcDbCircle
 10
0.2275
 20
0.968643
 30
0.0
 40
0.025
100
AcDbArc
 50
180.000005
 51
256.782796
  0
ARC
  5
1B8
100
AcDbEntity
  8
1
  6
Continuous
 62
    84
100
AcDbCircle
 10
-0.725119
 20
0.681342
 30
0.0
 40
0.025
100
AcDbArc
 50
-120.000003
 51
-43.217206
  0
ARC
  5
1B9
100
AcDbEntity
  8
1
  6
Continuous
 62
    84
100
AcDbCircle
 10
-0.952619
 20
0.287301
 30
0.0
 40
0.025
100
AcDbArc
 50
-16.782794
 51
60.000002
  0
ARC
  5
1BA
100
AcDbEntity
  8
1
  6
Continuous
 62
    84
100
AcDbCircle
 10
-0.952619
 20
-0.287301
 30
0.0
 40
0.025
100
AcDbArc
 50
-60.000002
 51
16.782794
  0
ARC
  5
1BB
100
AcDbEntity
  8
1
  6
Continuous
 62
    84
100
AcDbCircle
 10
-0.725119
 20
-0.681342
 30
0.0
 40
0.025
100
AcDbArc
 50
43.217206
 51
120.000003
  0
ARC
  5
1BC
100
AcDbEntity
  8
1
  6
Continuous
 62
    84
100
AcDbCircle
 10
-0.2275
 20
-0.968643
 30
0.0
 40
0.025
100
AcDbArc
 50
0.0
 51
76.782794
  0
ARC
  5
1BD
100
AcDbEntity
  8
1
  6
Continuous
 62
    84
100
AcDbCircle
 10
0.2275
 20
-0.968643
 30
0.0
 40
0.025
100
AcDbArc
 50
103.217204
 51
179.999991
  0
ARC
  5
1BE
100
AcDbEntity
  8
1
  6
Continuous
 62
    84
100
AcDbCircle
 10
0.952619
 20
-0.287301
 30
0.0
 40
0.025
100
AcDbArc
 50
163.217206
 51
239.999997
  0
ARC
  5
1BF
100
AcDbEntity
  8
1
  6
Continuous
 62
    84
100
AcDbCircle
 10
0.725119
 20
-0.681342
 30
0.0
 40
0.025
100
AcDbArc
 50
60.000002
 51
136.782789
  0
ARC
  5
1C0
100
AcDbEntity
  8
1
  6
Continuous
 62
    84
100
AcDbCircle
 10
0.725119
 20
0.681342
 30
0.0
 40
0.025
100
AcDbArc
 50
-136.782789
 51
-60.000002
  0
ARC
  5
1C1
100
AcDbEntity
  8
1
  6
Continuous
 62
    84
100
AcDbCircle
 10
0.952619
 20
0.287301
 30
0.0
 40
0.025
100
AcDbArc
 50
120.000003
 51
196.782794
  0
POLYLINE
  5
1C2
100
AcDbEntity
  8
0
  6
Continuous
 62
     7
100
AcDb2dPolyline
 66
     1
 10
0.0
 20
0.0
 30
0.0
 70
   128
  0
VERTEX
  5
1C3
100
AcDbEntity
  8
0
  6
Continuous
 62
     7
100
AcDbVertex
100
AcDb2dVertex
 10
-1.565
 20
-0.5
 30
0.0
 42
-0.414214
  0
VERTEX
  5
1C4
100
AcDbEntity
  8
0
  6
Continuous
 62
     7
100
AcDbVertex
100
AcDb2dVertex
 10
-1.625
 20
-0.44
 30
0.0
  0
VERTEX
  5
1C5
100
AcDbEntity
  8
0
  6
Continuous
 62
     7
100
AcDbVertex
100
AcDb2dVertex
 10
-1.625
 20
0.215
 30
0.0
 42
-0.414214
  0
VERTEX
  5
1C6
100
AcDbEntity
  8
0
  6
Continuous
 62
     7
100
AcDbVertex
100
AcDb2dVertex
 10
-1.565
 20
0.275
 30
0.0
  0
VERTEX
  5
1C7
100
AcDbEntity
  8
0
  6
Continuous
 62
     7
100
AcDbVertex
100
AcDb2dVertex
 10
-1.31
 20
0.275
 30
0.0
 42
0.414214
  0
VERTEX
  5
1C8
100
AcDbEntity
  8
0
  6
Continuous
 62
     7
100
AcDbVertex
100
AcDb2dVertex
 10
-1.25
 20
0.335
 30
0.0
  0
VERTEX
  5
1C9
100
AcDbEntity
  8
0
  6
Continuous
 62
     7
100
AcDbVertex
100
AcDb2dVertex
 10
-1.25
 20
0.75
 30
0.0
 42
-0.162278
  0
VERTEX
  5
1CA
100
AcDbEntity
  8
0
  6
Continuous
 62
     7
100
AcDbVertex
100
AcDb2dVertex
 10
-1.2
 20
0.9
 30
0.0
 42
-0.5
  0
VERTEX
  5
1CB
100
AcDbEntity
  8
0
  6
Continuous
 62
     7
100
AcDbVertex
100
AcDb2dVertex
 10
1.2
 20
0.9
 30
0.0
 42
-0.162278
  0
VERTEX
  5
1CC
100
AcDbEntity
  8
0
  6
Continuous
 62
     7
100
AcDbVertex
100
AcDb2dVertex
 10
1.25
 20
0.75
 30
0.0
  0
VERTEX
  5
1CD
100
AcDbEntity
  8
0
  6
Continuous
 62
     7
100
AcDbVertex
100
AcDb2dVertex
 10
1.25
 20
0.335
 30
0.0
 42
0.414214
  0
VERTEX
  5
1CE
100
AcDbEntity
  8
0
  6
Continuous
 62
     7
100
AcDbVertex
100
AcDb2dVertex
 10
1.31
 20
0.275
 30
0.0
  0
VERTEX
  5
1CF
100
AcDbEntity
  8
0
  6
Continuous
 62
     7
100
AcDbVertex
100
AcDb2dVertex
 10
1.565
 20
0.275
 30
0.0
 42
-0.414214
  0
VERTEX
  5
1D0
100
AcDbEntity
  8
0
  6
Continuous
 62
     7
100
AcDbVertex
100
AcDb2dVertex
 10
1.625
 20
0.215
 30
0.0
  0
VERTEX
  5
1D1
100
AcDbEntity
  8
0
  6
Continuous
 62
     7
100
AcDbVertex
100
AcDb2dVertex
 10
1.625
 20
-0.44
 30
0.0
 42
-0.414214
  0
VERTEX
  5
1D2
100
AcDbEntity
  8
0
  6
Continuous
 62
     7
100
AcDbVertex
100
AcDb2dVertex
 10
1.565
 20
-0.5
 30
0.0
  0
VERTEX
  5
1D3
100
AcDbEntity
  8
0
  6
Continuous
 62
     7
100
AcDbVertex
100
AcDb2dVertex
 10
1.5
 20
-0.5
 30
0.0
 42
0.414214
  0
VERTEX
  5
1D4
100
AcDbEntity
  8
0
  6
Continuous
 62
     7
100
AcDbVertex
100
AcDb2dVertex
 10
1.0
 20
-1.0
 30
0.0
 42
0.414214
  0
VERTEX
  5
1D5
100
AcDbEntity
  8
0
  6
Continuous
 62
     7
100
AcDbVertex
100
AcDb2dVertex
 10
1.25
 20
-1.25
 30
0.0
  0
VERTEX
  5
1D6
100
AcDbEntity
  8
0
  6
Continuous
 62
     7
100
AcDbVertex
100
AcDb2dVertex
 10
2.19
 20
-1.25
 30
0.0
 42
-0.414214
  0
VERTEX
  5
1D7
100
AcDbEntity
  8
0
  6
Continuous
 62
     7
100
AcDbVertex
100
AcDb2dVertex
 10
2.25
 20
-1.31
 30
0.0
  0
VERTEX
  5
1D8
100
AcDbEntity
  8
0
  6
Continuous
 62
     7
100
AcDbVertex
100
AcDb2dVertex
 10
2.25
 20
-1.5
 30
0.0
  0
VERTEX
  5
1D9
100
AcDbEntity
  8
0
  6
Continuous
 62
     7
100
AcDbVertex
100
AcDb2dVertex
 10
-2.25
 20
-1.5
 30
0.0
  0
VERTEX
  5
1DA
100
AcDbEntity
  8
0
  6
Continuous
 62
     7
100
AcDbVertex
100
AcDb2dVertex
 10
-2.25
 20
-1.31
 30
0.0
 42
-0.414214
  0
VERTEX
  5
1DB
100
AcDbEntity
  8
0
  6
Continuous
 62
     7
100
AcDbVertex
100
AcDb2dVertex
 10
-2.19
 20
-1.25
 30
0.0
  0
VERTEX
  5
1DC
100
AcDbEntity
  8
0
  6
Continuous
 62
     7
100
AcDbVertex
100
AcDb2dVertex
 10
-1.25
 20
-1.25
 30
0.0
 42
0.414214
  0
VERTEX
  5
1DD
100
AcDbEntity
  8
0
  6
Continuous
 62
     7
100
AcDbVertex
100
AcDb2dVertex
 10
-1.0
 20
-1.0
 30
0.0
 42
0.414214
  0
VERTEX
  5
1DE
100
AcDbEntity
  8
0
  6
Continuous
 62
     7
100
AcDbVertex
100
AcDb2dVertex
 10
-1.5
 20
-0.5
 30
0.0
 42
0.414214
  0
SEQEND
  5
1DF
100
AcDbEntity
  8
0
  6
Continuous
 62
     7
  0
DIMENSION
  5
1FF
100
AcDbEntity
  8
0
  6
Continuous
 62
     0
100
AcDbDimension
  2
*D7
 10
3.0
 20
-1.5
 30
0.0
 11
3.0
 21
0.0
 31
0.0
 70
     1
 71
     5
 72
     1
 41
1.0
 42
0.0
  1
<>
  3
STANDARD
100
AcDbAlignedDimension
 13
2.25
 23
1.5
 33
0.0
 14
2.25
 24
-1.5
 34
0.0
 50
-90.0
1001
ACAD
1000
DSTYLE
1002
{
1070
     3
1000
<>in
1002
}
  0
LINE
  5
200
100
AcDbEntity
  8
0
370
     0
  6
Continuous
 62
     7
100
AcDbLine
 10
2.3125
 20
1.5
 30
0.0
 11
0.0
 21
1.5
 31
0.0
  0
DIMENSION
  5
220
100
AcDbEntity
  8
0
  6
Continuous
 62
     0
100
AcDbDimension
  2
*D8
 10
6.0
 20
-1.5
 30
0.0
 11
6.0
 21
-0.75
 31
0.0
 70
     1
 71
     5
 72
     1
 41
1.0
 42
0.0
  1
<>
  3
STANDARD
100
AcDbAlignedDimension
 13
6.694
 23
0.0
 33
0.0
 14
6.694
 24
-1.5
 34
0.0
 50
-90.0
1001
ACAD
1000
DSTYLE
1002
{
1070
     3
1000
<>in
1002
}
  0
LINE
  5
221
100
AcDbEntity
  8
0
370
     0
  6
Continuous
 62
     7
100
AcDbLine
 10
6.6315
 20
-1.5
 30
0.0
 11
7.25
 21
-1.5
 31
0.0
  0
DIMENSION
  5
241
100
AcDbEntity
  8
0
  6
Continuous
 62
     0
100
AcDbDimension
  2
*D9
 10
15.5
 20
-1.125
 30
0.0
 11
15.5
 21
0.0
 31
0.0
 70
     1
 71
     5
 72
     1
 41
1.0
 42
0.0
  1
<>
  3
STANDARD
100
AcDbAlignedDimension
 13
14.569
 23
1.125
 33
0.0
 14
14.569
 24
-1.125
 34
0.0
 50
-90.0
1001
ACAD
1000
DSTYLE
1002
{
1070
     3
1000
<>in
1002
}
  0
ENDSEC
  0
SECTION
  2
OBJECTS
  0
DICTIONARY
  5
19
100
AcDbDictionary
280
     0
281
     1
  3
ACAD_GROUP
350
1A
  3
ACAD_MLINESTYLE
350
1B
  3
ACAD_LAYOUT
350
1E
  3
ACAD_PLOTSETTINGS
350
22
  3
ACAD_PLOTSTYLENAME
350
1F
  3
ACAD_WIPEOUT_VARS
350
23
  0
DICTIONARY
  5
1A
102
{ACAD_REACTORS
330
19
102
}
100
AcDbDictionary
280
     0
281
     1
  0
DICTIONARY
  5
1B
102
{ACAD_REACTORS
330
19
102
}
100
AcDbDictionary
280
     0
281
     1
  3
Standard
350
1C
  0
MLINESTYLE
  5
1C
100
AcDbMlineStyle
  2
STANDARD
 70
     0
  3

 62
   256
 51
90.0
 52
90.0
 71
     2
 49
0.5
 62
   256
  6
BYLAYER
 49
-0.5
 62
   256
  6
BYLAYER
  0
ACDBDICTIONARYWDFLT
  5
1F
102
{ACAD_REACTORS
330
19
102
}
100
AcDbDictionary
281
     1
  3
Normal
350
1D
100
AcDbDictionaryWithDefault
340
1D
  0
ACDBPLACEHOLDER
  5
1D
102
{ACAD_REACTORS
330
1F
102
}
  0
LAYOUT
  5
21
102
{ACAD_REACTORS
330
1E
102
}
100
AcDbPlotSettings
  1

  2

  4

  6

 40
0.0
 41
0.0
 42
0.0
 43
0.0
 44
0.0
 45
0.0
 46
0.0
 47
0.0
 48
0.0
 49
0.0
140
0.0
141
0.0
142
1.0
143
1.0
 70
     0
 72
     0
 73
     0
 74
     0
  7

 75
     0
147
1.0
148
0.0
149
0.0
100
AcDbLayout
  1
Layout1
 70
     0
 71
     0
 10
0.0
 20
0.0
 11
0.0
 21
0.0
 12
0.0
 22
0.0
 32
0.0
 14
0.0
 24
0.0
 34
0.0
 15
0.0
 25
0.0
 35
0.0
146
0.0
 13
0.0
 23
0.0
 33
0.0
 16
0.0
 26
0.0
 36
0.0
 17
0.0
 27
0.0
 37
0.0
 76
     0
330
B
331
0
345
0
346
0
  0
DICTIONARY
  5
1E
102
{ACAD_REACTORS
330
19
102
}
100
AcDbDictionary
280
     0
281
     1
  3
Model
350
242
  3
_PAPER_SPACE
350
243
  0
DICTIONARY
  5
22
102
{ACAD_REACTORS
330
19
102
}
100
AcDbDictionary
280
     0
281
     1
  0
WIPEOUTVARIABLES
  5
23
100
AcDbWipeoutVariables
 70
     1
  0
LAYOUT
  5
242
100
AcDbPlotSettings
  1

  2

  4

  6

 40
0.0
 41
0.0
 42
0.0
 43
0.0
 44
0.0
 45
0.0
 46
0.0
 47
0.0
 48
0.0
 49
0.0
140
0.0
141
0.0
142
1.0
143
1.0
 70
     0
 72
     0
 73
     0
 74
     0
  7

 75
     0
147
1.0
148
0.0
149
0.0
100
AcDbLayout
  1
Model
 70
     0
 71
     0
 10
0.0
 20
0.0
 11
0.0
 21
0.0
 12
0.0
 22
0.0
 32
0.0
 14
0.0
 24
0.0
 34
0.0
 15
0.0
 25
0.0
 35
0.0
146
0.0
 13
0.0
 23
0.0
 33
0.0
 16
0.0
 26
0.0
 36
0.0
 17
0.0
 27
0.0
 37
0.0
 76
     0
330
A
331
0
345
0
346
0
  0
LAYOUT
  5
243
100
AcDbPlotSettings
  1

  2

  4

  6

 40
0.0
 41
0.0
 42
0.0
 43
0.0
 44
0.0
 45
0.0
 46
0.0
 47
0.0
 48
0.0
 49
0.0
140
0.0
141
0.0
142
1.0
143
1.0
 70
     0
 72
     0
 73
     0
 74
     0
  7

 75
     0
147
1.0
148
0.0
149
0.0
100
AcDbLayout
  1
_PAPER_SPACE
 70
     0
 71
     1
 10
0.0
 20
0.0
 11
0.0
 21
0.0
 12
0.0
 22
0.0
 32
0.0
 14
0.0
 24
0.0
 34
0.0
 15
0.0
 25
0.0
 35
0.0
146
0.0
 13
0.0
 23
0.0
 33
0.0
 16
0.0
 26
0.0
 36
0.0
 17
0.0
 27
0.0
 37
0.0
 76
     0
330
B
331
0
345
0
346
0
  0
ENDSEC
  0
EOF
